<?xml version="1.0" encoding="UTF-8"?>
<svg xmlns="http://www.w3.org/2000/svg" xmlns:xlink="http://www.w3.org/1999/xlink" version="1.2" >
<font id="Futura Passata DISPLAY">
<font-face  font-family="Futura Passata" units-per-em="1000" ascent="825" descent="-175" font-style="normal" font-weight="700" font-stretch="normal" cap-height="754" x-height="825" underline-position="-75" underline-thickness="50" />
<missing-glyph  horiz-adv-x="500" d="M0 0 L500 0 L500 700 L0 700 L0 0 Z M250 395 L80 650 L420 650 L250 395 Z M50 605 L220 350 L50 95 L50 605 Z M280 350 L450 605 L450 95 L280 350 Z M80 50 L250 305 L420 50 L80 50 Z " />
<glyph glyph-name="space" unicode="&#x20;" horiz-adv-x="289" d="" />
<glyph glyph-name="exclam" unicode="&#x21;" horiz-adv-x="325" d="M113 754 C85 750 91 719 91 684 L91 617 C91 506 111 396 111 285 C111 264 109 233 117 224 C127 214 142 217 164 217 C188 217 197 212 208 224 C216 233 214 263 214 285 C214 428 234 544 234 687 C234 708 237 739 228 748 C220 757 195 755 175 755 C151 755 124 756 113 754 L113 754 Z M149 157 C127 154 110 144 98 132 C86 119 77 108 74 81 C68 17 120 -21 167 -19 C208 -17 248 15 251 63 C256 124 208 164 149 157 L149 157 Z " />
<glyph glyph-name="quotedbl" unicode="&#x22;" horiz-adv-x="488" d="M113 753 C88 750 89 735 90 709 L101 509 C102 485 101 445 111 434 C121 423 168 421 182 431 C195 441 193 476 195 504 C198 550 201 619 204 669 C205 691 213 735 201 747 C189 760 133 756 113 753 L113 753 Z M305 753 C280 750 281 735 282 709 L293 509 C294 485 293 445 303 434 C313 423 360 421 374 431 C387 441 385 476 387 504 C390 550 393 619 396 669 C397 691 405 735 393 747 C381 760 325 756 305 753 L305 753 Z " />
<glyph glyph-name="numbersign" unicode="&#x23;" horiz-adv-x="578" d="M233 725 C205 721 204 695 199 670 L190 619 C185 595 179 536 162 527 C151 521 129 523 110 523 C97 523 70 525 61 516 C49 504 49 428 61 416 C77 400 133 420 143 398 C147 390 143 378 142 371 C138 348 136 306 121 293 C100 275 37 296 20 279 C8 267 9 194 19 180 C33 161 84 183 96 162 C101 153 97 137 95 124 C92 110 90 98 88 86 C85 68 70 26 79 10 C85 0 100 0 122 0 C142 0 162 -1 171 5 C186 16 189 55 194 82 C200 115 202 160 223 169 C241 176 297 176 304 161 C308 152 304 135 302 123 C297 96 292 75 287 48 C285 37 280 21 286 10 C294 -3 361 -5 377 4 C393 13 396 55 401 83 C403 96 407 111 409 123 C412 136 413 153 419 161 C436 185 510 160 529 179 C542 192 539 269 529 279 C515 293 457 276 449 298 C443 315 452 332 455 350 C458 366 460 388 467 398 C483 419 538 397 557 416 C569 428 569 504 557 516 C543 530 499 514 491 535 C486 547 492 569 495 582 C501 614 507 639 513 670 C516 683 522 706 516 716 C508 731 443 730 428 723 C413 716 412 698 408 676 L387 572 C383 552 383 534 369 527 C352 518 291 518 285 535 C281 547 286 568 289 582 C295 613 301 639 307 670 C309 682 315 706 310 716 C302 731 253 728 233 725 L233 725 Z M246 349 C252 380 249 404 279 408 C302 411 343 413 351 401 C361 387 349 357 346 343 C342 322 340 300 329 292 C316 282 247 281 240 297 C234 310 243 334 246 349 L246 349 Z " />
<glyph glyph-name="dollar" unicode="&#x24;" horiz-adv-x="578" d="M292 847 C249 841 279 799 264 766 C259 754 242 749 228 744 C183 727 153 704 129 666 C101 622 83 542 105 475 C124 415 170 381 221 356 C270 331 339 313 366 266 C387 230 376 185 359 161 C343 139 315 123 281 123 C225 123 193 156 169 188 C162 197 152 217 138 217 C129 217 119 208 114 203 C105 194 101 191 94 184 C83 173 61 158 60 140 C59 129 67 118 73 109 C105 61 140 30 197 10 C217 3 253 0 262 -14 C274 -32 260 -79 274 -93 C285 -104 325 -102 334 -93 C351 -76 334 -29 345 -8 C350 1 369 7 378 11 C462 44 523 119 523 235 C523 376 423 418 327 463 C287 481 216 516 243 583 C252 606 278 629 310 632 C357 637 382 618 404 600 C413 592 423 584 432 585 C450 586 459 611 467 622 C476 635 494 649 492 669 C491 686 476 694 466 702 C443 722 422 734 390 744 C371 750 355 751 347 761 C333 778 348 825 335 840 C329 847 310 849 292 847 L292 847 Z " />
<glyph glyph-name="percent" unicode="&#x25;" horiz-adv-x="843" d="M720 790 C705 792 684 763 673 750 C475 521 280 295 85 66 C73 51 48 28 47 13 C46 -1 62 -11 74 -20 C86 -30 97 -46 115 -47 C129 -48 150 -19 161 -7 C262 109 355 220 455 335 C556 453 649 559 748 677 C763 694 786 714 787 731 C788 742 776 752 764 762 C750 773 737 789 720 790 L720 790 Z M207 773 C151 769 114 748 86 716 C58 685 39 640 42 581 C45 529 69 488 100 460 C131 432 179 414 235 418 C335 425 408 498 399 609 C395 664 373 702 341 730 C310 757 267 777 207 773 L207 773 Z M142 596 C142 644 170 684 212 690 C318 704 329 511 229 500 C173 494 142 548 142 596 L142 596 Z M610 336 C554 332 517 311 489 279 C461 248 442 203 445 144 C448 92 472 51 503 23 C534 -5 582 -23 638 -19 C738 -12 811 61 802 172 C798 227 776 265 744 293 C713 320 670 340 610 336 L610 336 Z M545 159 C545 207 573 247 615 253 C721 267 732 74 632 63 C576 57 545 111 545 159 L545 159 Z " />
<glyph glyph-name="ampersand" unicode="&#x26;" horiz-adv-x="702" d="M303 773 C259 770 225 756 197 735 C168 713 149 687 137 653 C115 592 130 524 154 479 C160 467 177 446 176 430 C174 414 153 405 141 396 C77 350 16 273 36 159 C54 50 143 -29 274 -19 C335 -14 384 10 425 39 C434 45 452 66 469 65 C483 64 494 45 502 36 C512 24 520 9 533 4 C554 -5 589 0 618 0 C639 0 689 -6 694 11 C696 19 688 28 685 33 C661 68 637 97 613 129 C604 141 588 156 589 173 C589 193 612 214 621 226 C630 238 654 261 653 280 C652 298 628 312 616 324 C603 336 585 359 569 358 C553 357 541 334 531 321 C522 310 507 284 491 285 C480 286 470 299 463 309 L417 369 C410 378 397 389 399 404 C401 421 429 435 442 447 C484 487 525 542 507 632 C488 721 410 780 303 773 L303 773 Z M274 561 C253 608 275 661 320 666 C386 673 399 581 366 537 C355 523 337 503 322 504 C310 505 302 518 294 529 C286 540 279 549 274 561 L274 561 Z M213 286 C223 298 241 319 258 322 C277 325 286 305 295 293 C315 266 344 230 364 201 C368 194 373 187 373 178 C372 161 351 148 342 141 C319 124 280 104 243 119 C211 131 186 166 183 202 C179 241 195 265 213 286 L213 286 Z " />
<glyph glyph-name="quotesingle" unicode="&#x27;" horiz-adv-x="296" d="M113 753 C106 752 98 751 93 745 C84 731 91 689 92 669 C96 614 99 564 101 510 C103 486 100 448 110 435 C120 423 172 422 184 433 C197 445 194 485 195 506 C198 564 201 608 203 666 C204 686 213 728 203 744 C194 760 136 756 113 753 L113 753 Z " />
<glyph glyph-name="parenleft" unicode="&#x28;" horiz-adv-x="271" d="M178 821 C162 817 155 789 149 772 C99 642 74 502 74 321 C74 147 100 -4 150 -129 C158 -149 165 -173 181 -174 C196 -175 211 -160 223 -152 C235 -144 251 -136 254 -119 C255 -106 246 -87 240 -71 C199 41 180 174 180 324 C180 477 200 606 240 719 C245 734 257 755 255 769 C253 782 235 793 223 801 C211 809 191 824 178 821 L178 821 Z " />
<glyph glyph-name="parenright" unicode="&#x29;" horiz-adv-x="271" d="M84 821 C72 819 59 808 46 799 C33 790 19 782 17 771 C13 754 25 733 31 718 C71 601 92 482 92 324 C92 173 72 42 31 -70 C25 -86 15 -108 17 -121 C19 -135 38 -146 49 -153 C58 -160 76 -177 93 -174 C106 -172 115 -145 122 -128 C172 1 198 152 198 327 C198 495 169 657 120 780 C112 800 104 824 84 821 L84 821 Z " />
<glyph glyph-name="asterisk" unicode="&#x2a;" horiz-adv-x="417" d="M191 753 C185 752 177 752 172 746 C158 728 180 673 156 669 C133 665 117 699 94 696 C81 695 76 679 73 674 C68 666 60 654 62 642 C66 616 118 613 117 587 C116 574 99 566 90 560 C79 553 64 548 63 532 C62 522 70 510 74 502 C78 493 83 483 95 481 C117 477 135 512 157 507 C168 504 167 484 167 472 C166 459 165 439 173 431 C184 419 237 421 247 432 C260 448 241 503 263 507 C273 509 285 499 294 493 C302 487 312 478 325 481 C335 483 341 495 345 502 C349 510 357 522 356 533 C353 559 299 563 300 589 C300 601 318 610 328 616 C338 622 354 628 356 643 C358 661 337 693 324 695 C301 699 283 663 262 670 C240 677 261 728 247 746 C238 757 207 755 191 753 L191 753 Z " />
<glyph glyph-name="plus" unicode="&#x2b;" horiz-adv-x="578" d="M254 511 C226 507 229 491 229 460 L229 412 C229 385 235 335 222 322 C209 309 160 315 131 315 C103 315 52 321 39 308 C30 299 32 275 32 256 C32 238 29 213 39 203 C52 190 103 196 130 196 C155 196 208 202 222 189 C233 178 229 133 229 97 C229 66 224 22 235 8 C243 -2 271 0 289 0 C308 0 331 -3 341 7 C354 20 348 72 348 98 C348 129 342 176 355 189 C368 202 418 196 446 196 C474 196 524 190 538 203 C550 215 549 297 538 308 C524 321 471 315 447 315 C415 315 368 308 355 322 C342 335 348 390 348 413 C348 437 354 492 341 505 C330 516 273 514 254 511 L254 511 Z " />
<glyph glyph-name="comma" unicode="&#x2c;" horiz-adv-x="289" d="M151 153 C124 150 118 112 110 88 C88 27 63 -40 42 -99 C37 -112 30 -130 34 -140 C39 -153 95 -161 112 -155 C123 -151 129 -137 135 -125 C171 -52 205 22 240 94 C245 106 256 122 252 134 C246 150 167 155 151 153 L151 153 Z " />
<glyph glyph-name="hyphen" unicode="&#x2d;" horiz-adv-x="330" d="M68 377 C61 376 53 376 48 369 C37 355 40 280 50 270 C59 261 87 263 104 263 L226 263 C246 263 272 261 281 270 C290 279 288 302 288 320 C288 339 290 362 281 371 C272 380 251 378 234 378 C179 378 115 383 68 377 L68 377 Z " />
<glyph glyph-name="period" unicode="&#x2e;" horiz-adv-x="289" d="M145 158 C96 158 56 119 56 70 C56 21 96 -20 145 -20 C194 -20 234 21 234 70 C234 119 194 158 145 158 L145 158 Z " />
<glyph glyph-name="slash" unicode="&#x2f;" horiz-adv-x="539" d="M412 840 C397 836 387 802 381 786 C273 503 168 224 63 -58 C56 -76 41 -106 45 -121 C49 -134 67 -138 82 -143 C96 -148 112 -159 129 -154 C143 -150 153 -116 159 -101 C214 43 264 179 318 321 C373 467 424 598 477 743 C485 764 500 791 495 807 C492 818 477 823 463 828 C446 834 428 844 412 840 L412 840 Z " />
<glyph glyph-name="zero" unicode="0" horiz-adv-x="578" d="M273 773 C171 765 115 704 77 634 C40 565 15 462 19 358 C23 252 48 165 91 97 C132 31 199 -27 306 -20 C444 -11 517 114 545 241 C555 286 563 337 560 393 C555 495 530 589 489 655 C448 721 382 781 273 773 L273 773 Z M236 624 C246 633 259 640 278 643 C312 648 339 630 355 611 C422 531 429 330 390 212 C376 169 355 132 324 117 C293 102 256 113 235 131 C186 174 164 286 164 378 C164 430 172 479 182 519 C192 559 209 602 236 624 L236 624 Z " />
<glyph glyph-name="one" unicode="1" horiz-adv-x="578" d="M167 753 C139 749 145 723 145 689 C145 668 143 640 151 632 C165 616 224 636 239 617 C248 606 244 566 244 544 L244 76 C244 53 241 15 251 5 C262 -5 294 -1 318 -1 C343 -1 376 -3 385 5 C396 15 392 67 392 92 L392 658 C392 683 398 734 386 747 C378 755 356 754 337 754 C283 754 208 759 167 753 L167 753 Z " />
<glyph glyph-name="two" unicode="2" horiz-adv-x="578" d="M42 7 C56 -5 77 -1 96 -1 L472 -1 C493 -1 520 -3 529 5 C539 15 536 43 536 62 C536 82 539 111 530 121 C522 130 495 128 474 128 L356 128 C334 128 308 127 306 138 C304 150 326 170 334 180 C368 219 401 257 431 294 C473 346 513 403 526 480 C542 573 512 645 469 694 C425 744 361 779 268 774 C144 767 69 685 45 574 C42 558 35 534 44 523 C53 512 90 516 113 516 C137 516 172 511 185 520 C193 525 195 538 197 551 C205 595 228 639 276 644 C341 651 378 589 382 537 C385 494 370 465 355 434 C319 362 272 308 224 248 L60 42 C52 32 41 21 42 7 L42 7 Z " />
<glyph glyph-name="three" unicode="3" horiz-adv-x="578" d="M272 773 C241 771 210 765 185 753 C125 725 87 676 68 608 C64 595 59 572 66 563 C74 552 102 556 126 556 C152 556 175 554 190 559 C204 564 206 593 212 604 C219 619 232 635 249 643 C271 654 306 651 326 638 C345 626 363 599 366 569 C372 510 346 470 303 457 C289 453 268 455 260 444 C253 436 255 414 255 398 C255 378 252 361 262 353 C271 345 290 349 304 347 C331 342 353 324 366 304 C407 239 384 144 325 117 C264 89 210 132 193 168 C185 185 183 207 170 214 C156 221 123 218 102 218 C82 218 45 222 37 210 C29 199 37 174 41 160 C55 109 77 78 109 47 C147 10 205 -21 283 -21 C339 -21 385 -6 419 14 C489 55 542 129 532 241 C526 305 503 351 467 384 C461 389 451 395 451 406 C451 415 458 422 466 432 C509 486 522 584 488 659 C455 732 380 781 272 773 L272 773 Z " />
<glyph glyph-name="four" unicode="4" horiz-adv-x="578" d="M355 767 C332 764 326 748 316 731 C224 579 137 427 46 273 C34 253 12 224 5 202 C0 187 0 148 8 139 C18 128 58 132 83 132 L248 132 C274 132 313 137 326 127 C346 111 323 25 340 6 C350 -5 380 -1 403 -1 C426 -1 458 -4 467 6 C485 25 460 104 479 125 C491 138 533 124 547 139 C555 148 553 173 553 192 C553 211 556 236 546 245 C533 257 494 245 481 256 C470 265 473 290 473 316 L473 702 C473 724 476 752 467 761 C455 774 373 769 355 767 L355 767 Z M255 251 C229 251 199 246 186 260 C185 274 192 286 198 297 C226 349 253 401 283 456 C293 475 306 506 320 517 C337 530 334 474 334 459 L334 319 C334 298 337 266 327 257 C316 247 275 251 255 251 L255 251 Z " />
<glyph glyph-name="five" unicode="5" horiz-adv-x="578" d="M191 753 C166 749 166 730 160 703 C143 620 126 541 110 459 C106 438 99 409 96 385 C91 342 129 370 142 378 C179 400 233 416 284 397 C338 377 381 327 381 255 C381 176 328 118 261 110 C197 103 149 134 117 162 C108 170 92 193 79 191 C65 189 57 151 53 141 C47 125 34 101 37 81 C40 63 65 47 80 36 C130 -1 200 -26 285 -19 C392 -10 461 41 500 118 C520 158 534 207 531 263 C529 316 513 362 491 399 C453 461 394 509 297 513 C278 514 265 512 259 520 C250 533 261 562 264 573 C268 590 271 613 282 620 C292 626 313 625 332 625 L388 625 C415 625 479 618 493 631 C503 640 500 668 500 688 C500 707 503 737 494 747 C485 757 449 754 424 754 L347 754 C296 754 228 758 191 753 L191 753 Z " />
<glyph glyph-name="six" unicode="6" horiz-adv-x="578" d="M311 775 C296 770 285 744 276 731 C246 685 214 641 185 597 C145 536 102 478 68 413 C35 348 6 259 28 169 C48 92 96 38 165 5 C241 -30 341 -26 410 8 C477 41 525 99 543 176 C566 270 538 361 496 414 C460 460 404 500 315 496 C306 496 288 492 284 501 C281 511 292 523 296 530 C328 576 352 608 382 652 C391 665 414 686 412 705 C411 721 382 736 368 746 C356 755 330 781 311 775 L311 775 Z M200 340 C217 359 243 378 280 379 C361 382 410 302 400 221 C394 164 356 106 291 101 C260 99 229 112 209 131 C185 154 164 190 164 240 C164 280 181 318 200 340 L200 340 Z " />
<glyph glyph-name="seven" unicode="7" horiz-adv-x="578" d="M65 753 C37 749 43 722 43 688 C43 666 38 644 49 632 C56 625 69 625 81 625 L278 625 C300 625 341 629 346 614 C349 603 338 588 332 577 C244 412 158 253 71 92 C65 81 54 65 56 53 C57 44 67 36 77 31 C98 19 113 11 133 0 C142 -5 153 -14 165 -12 C180 -10 188 15 196 29 C313 252 433 473 551 694 C556 704 576 732 571 745 C566 757 537 754 516 754 L195 754 C152 754 97 758 65 753 L65 753 Z " />
<glyph glyph-name="eight" unicode="8" horiz-adv-x="578" d="M273 773 C225 770 180 753 149 730 C118 706 93 671 80 633 C55 560 74 483 110 438 C117 429 150 406 149 394 C149 385 138 379 132 375 C90 346 58 306 48 241 C40 185 52 131 75 92 C117 22 211 -32 323 -18 C426 -5 502 53 526 143 C540 195 532 257 514 297 C498 332 482 352 453 372 C444 378 430 384 430 395 C430 407 450 417 459 427 C488 458 511 500 511 560 C511 630 483 682 444 718 C405 754 341 778 273 773 L273 773 Z M248 650 C256 655 267 659 279 661 C368 672 397 554 356 492 C344 474 319 454 290 454 C233 453 199 515 204 572 C207 607 225 635 248 650 L248 650 Z M247 320 C255 325 263 328 277 330 C393 345 417 168 335 116 C312 101 276 99 251 112 C212 133 190 181 195 232 C200 275 218 303 247 320 L247 320 Z " />
<glyph glyph-name="nine" unicode="9" horiz-adv-x="578" d="M273 773 C236 771 196 761 168 747 C138 732 113 713 94 692 C54 647 23 588 26 501 C28 420 58 358 101 317 C138 281 189 253 267 257 C274 257 290 260 293 252 C295 244 285 230 281 223 C250 179 224 145 194 102 C186 91 162 65 164 49 C165 32 196 17 208 8 L233 -10 C240 -15 250 -25 262 -24 C276 -22 292 8 302 22 C337 75 372 126 406 176 C454 248 501 310 533 393 C549 436 560 492 556 540 C551 591 535 633 511 667 C463 733 381 780 273 773 L273 773 Z M224 627 C239 640 263 651 290 652 C359 654 406 595 412 528 C417 463 388 413 350 389 C316 368 270 369 239 388 C203 410 175 455 175 512 C174 557 195 603 224 627 L224 627 Z " />
<glyph glyph-name="colon" unicode="&#x3a;" horiz-adv-x="289" d="M132 517 C110 514 93 504 81 492 C69 479 60 468 57 441 C49 358 142 310 203 362 C223 379 237 406 234 441 C232 462 219 483 209 493 C192 511 166 521 132 517 L132 517 Z M132 157 C110 154 93 144 81 132 C69 119 60 108 57 81 C49 -2 142 -50 203 2 C223 19 237 46 234 81 C232 102 219 123 209 133 C192 151 166 161 132 157 L132 157 Z " />
<glyph glyph-name="semicolon" unicode="&#x3b;" horiz-adv-x="289" d="M172 517 C150 514 133 504 121 492 C108 479 99 468 97 441 C89 355 184 313 243 362 C261 378 272 398 274 423 C276 453 263 479 249 493 C231 511 206 521 172 517 L172 517 Z M140 154 L138 154 C116 152 106 107 99 86 C78 25 54 -40 33 -99 C29 -111 20 -129 24 -139 C27 -148 43 -151 58 -153 C73 -155 91 -159 103 -155 C113 -152 120 -136 126 -124 C163 -51 197 22 231 95 C237 109 248 123 244 135 C240 147 217 147 197 149 C173 152 152 156 140 154 L140 154 Z " />
<glyph glyph-name="less" unicode="&#x3c;" horiz-adv-x="578" d="M523 489 C502 487 480 475 460 468 C335 424 217 381 93 337 C73 330 44 324 37 310 C32 300 33 276 33 256 C33 236 31 213 37 202 C45 188 76 180 94 174 L471 40 C488 34 523 16 537 24 C550 31 546 55 546 76 C546 99 548 121 542 133 C533 151 492 160 472 167 C407 190 343 211 278 235 C270 238 246 245 247 257 C248 266 266 272 279 277 L471 345 C493 353 533 361 542 378 C549 391 546 410 546 433 C546 462 550 492 523 489 L523 489 Z " />
<glyph glyph-name="equal" unicode="&#x3d;" horiz-adv-x="578" d="M55 433 C28 429 33 405 33 372 C33 350 32 329 40 321 C49 313 78 315 98 315 L482 315 C504 315 532 313 540 322 C550 332 546 353 546 374 C546 394 548 418 540 427 C533 435 507 434 486 434 C464 434 451 434 425 434 L179 434 C140 434 91 438 55 433 L55 433 Z M55 197 C28 193 33 169 33 136 C33 114 32 93 40 85 C49 77 78 79 98 79 L482 79 C504 79 532 77 540 86 C550 96 546 117 546 138 C546 158 548 182 540 191 C533 199 507 198 486 198 C464 198 451 198 425 198 L179 198 C140 198 91 202 55 197 L55 197 Z " />
<glyph glyph-name="greater" unicode="&#x3e;" horiz-adv-x="578" d="M46 489 C29 485 32 464 32 438 C32 412 30 391 36 379 C42 367 56 363 68 359 C145 331 223 305 300 277 C311 273 332 266 331 255 C330 244 309 239 299 235 C234 211 170 190 107 167 C84 159 45 151 36 134 C30 122 32 99 32 77 C32 56 29 31 41 24 C56 15 90 34 106 40 C234 85 358 130 483 174 C503 181 534 188 541 202 C549 217 548 297 541 310 C534 322 504 331 485 338 C358 383 238 425 113 470 C94 477 71 489 48 490 C47 490 46 489 46 489 L46 489 Z " />
<glyph glyph-name="question" unicode="&#x3f;" horiz-adv-x="487" d="M227 774 C166 770 122 745 86 709 C70 693 55 673 45 648 C38 630 21 582 36 565 C46 554 75 558 100 558 C125 558 157 555 168 562 C180 570 179 595 184 608 C195 635 230 665 270 645 C298 631 315 592 311 552 C306 500 260 458 197 454 C184 453 175 457 166 450 C151 439 158 382 158 357 C158 327 161 236 175 223 C184 214 198 217 219 217 C240 217 252 214 263 223 C280 238 277 323 289 345 C294 354 319 360 330 365 C342 370 355 376 364 382 C421 420 469 494 455 592 C446 652 422 691 383 725 C348 756 294 779 227 774 L227 774 Z M207 157 C185 154 168 144 156 132 C143 119 134 108 132 81 C126 17 178 -21 225 -19 C266 -17 305 15 309 63 C314 124 266 164 207 157 L207 157 Z " />
<glyph glyph-name="at" unicode="&#x40;" horiz-adv-x="975" d="M483 774 C451 772 412 766 383 756 C352 746 326 732 304 718 C210 658 141 566 126 429 C108 279 167 159 244 86 C304 29 377 -12 490 -19 C587 -25 670 -4 735 26 C746 31 768 39 768 52 C768 65 749 76 741 82 C729 91 720 103 705 104 C687 105 668 90 653 85 C635 79 614 75 595 72 C454 52 347 102 283 176 C240 225 207 298 210 387 C212 475 242 543 288 593 C332 642 396 680 478 687 C567 694 641 664 690 617 C735 573 770 500 766 409 C763 346 741 290 709 253 C699 242 683 225 663 228 C635 233 645 280 650 305 C665 381 677 445 691 520 C693 533 699 555 693 564 C683 577 646 573 636 567 C621 559 626 529 610 527 C600 526 591 536 585 541 C553 569 508 587 452 578 C413 572 384 554 361 534 C313 493 281 428 278 348 C276 302 288 269 305 241 C330 198 365 165 421 155 C465 147 504 160 532 175 C544 182 560 201 576 199 C586 198 589 186 595 178 C626 132 701 161 735 186 C766 209 790 235 808 267 C843 330 865 435 845 521 C826 601 776 660 721 704 C664 750 583 780 483 774 L483 774 Z M427 476 C441 485 459 490 482 492 C548 497 589 460 591 398 C593 309 539 233 448 240 C395 244 365 290 365 347 C365 406 392 454 427 476 L427 476 Z " />
<glyph glyph-name="A" unicode="A" horiz-adv-x="687" d="M311 773 C284 769 281 750 272 727 C188 505 103 283 19 60 C13 45 1 22 6 9 C12 -6 46 -1 70 -1 C98 -1 126 -4 142 2 C156 7 162 23 168 39 C180 68 189 93 200 121 C205 134 210 150 223 155 C238 161 263 158 282 158 L407 158 C428 158 454 160 467 155 C479 150 483 133 488 121 L503 80 C511 59 523 13 538 4 C551 -4 585 -1 613 -1 C639 -1 672 -7 680 9 C686 22 675 44 669 59 C626 174 589 279 546 392 C500 515 467 606 423 725 C416 743 411 761 400 768 C385 778 330 775 311 773 L311 773 Z M314 468 C318 481 324 521 338 524 C353 528 364 483 368 471 C383 429 395 392 409 350 C414 334 432 302 423 287 C415 273 364 279 342 279 C317 279 272 273 265 290 C259 305 273 335 278 352 C290 393 302 429 314 468 L314 468 Z " />
<glyph glyph-name="B" unicode="B" horiz-adv-x="479" d="M78 750 C52 747 54 729 54 701 C54 654 54 597 54 560 L54 91 C54 63 49 15 62 4 C76 -8 129 -2 153 -2 C190 -2 222 -2 247 1 C360 15 437 77 444 193 C448 262 422 328 384 364 C378 370 367 375 368 387 C368 398 381 408 388 415 C412 442 427 473 432 518 C438 584 419 634 392 673 C366 710 326 738 271 748 C244 752 212 751 177 751 C146 751 107 754 78 750 L78 750 Z M203 573 C203 593 200 617 218 622 C229 625 247 619 254 614 C295 590 303 511 267 472 C257 460 232 439 213 449 C198 457 203 502 203 528 L203 573 Z M203 270 C203 292 199 319 220 323 C222 323 227 324 232 323 C299 309 319 198 268 148 C259 139 234 121 215 129 C197 136 203 191 203 219 L203 270 Z " />
<glyph glyph-name="C" unicode="C" horiz-adv-x="601" d="M369 773 C336 771 305 766 276 756 C192 728 136 679 92 616 C35 535 -3 402 30 271 C58 160 125 71 215 23 C262 -2 317 -21 387 -21 C419 -21 453 -14 480 -6 C503 1 542 10 553 30 C561 45 558 77 558 107 C558 126 563 176 549 180 C539 183 528 172 520 166 C494 147 465 132 431 125 C379 114 324 127 288 148 C253 169 226 200 205 238 C183 277 168 320 170 377 C173 488 220 565 289 605 C325 626 375 639 430 629 C465 622 494 608 520 589 C527 584 539 571 549 574 C563 578 558 629 558 646 C558 671 562 707 554 724 C544 746 502 756 476 763 C441 772 402 775 369 773 L369 773 Z " />
<glyph glyph-name="D" unicode="D" horiz-adv-x="530" d="M168 751 C145 750 73 758 60 745 C48 733 53 688 53 658 L53 95 C53 67 48 19 59 6 C67 -3 84 -2 103 -2 C151 -2 202 -3 243 2 C413 24 491 142 502 320 C510 450 489 562 437 636 C385 710 305 758 168 751 L168 751 Z M203 584 C203 601 206 612 222 613 C223 614 226 614 229 613 C273 607 301 574 319 539 C374 433 364 220 278 156 C267 148 230 127 211 139 C196 150 203 220 203 252 L203 373 C203 447 200 508 203 584 L203 584 Z " />
<glyph glyph-name="E" unicode="E" horiz-adv-x="488" d="M79 753 L77 753 C44 752 54 692 54 658 L54 94 C54 63 49 18 61 6 C73 -6 128 -1 152 -1 L346 -1 C373 -1 421 -7 437 5 C448 13 445 41 445 64 C445 85 449 110 438 121 C430 129 406 128 385 128 L263 128 C242 128 219 126 209 135 C196 148 202 205 202 231 C202 261 196 311 209 324 C218 333 241 331 263 331 L378 331 C398 331 421 330 429 338 C441 350 441 442 429 453 C420 462 401 460 378 460 L261 460 C244 460 218 458 209 467 C197 479 202 521 202 544 C202 571 197 606 209 618 C218 627 239 625 262 625 L382 625 C403 625 427 623 437 631 C448 639 445 670 445 689 C445 709 448 736 439 746 C432 755 415 754 398 754 L171 754 C139 754 101 756 79 753 L79 753 Z " />
<glyph glyph-name="F" unicode="F" horiz-adv-x="463" d="M79 753 L77 753 C44 752 54 696 54 657 L54 93 C54 64 50 17 61 6 C72 -5 105 -1 128 -1 C152 -1 182 -7 195 6 C206 17 202 57 202 82 L202 249 C202 274 197 314 210 325 C225 338 284 331 309 331 C335 331 396 326 408 338 C418 347 415 373 415 395 C415 417 418 443 408 453 C394 467 342 460 309 460 C283 460 221 455 209 467 C197 479 202 512 202 542 C202 566 198 606 209 618 C217 626 241 625 258 625 L315 625 C341 625 408 618 422 632 C432 642 429 670 429 689 C429 710 432 737 422 747 C411 758 368 754 342 754 L255 754 C202 754 125 759 79 753 L79 753 Z " />
<glyph glyph-name="G" unicode="G" horiz-adv-x="563" d="M287 763 C209 759 153 727 116 685 C43 602 12 441 32 286 C40 217 63 149 94 100 C139 29 224 -33 346 -8 C378 -2 408 14 430 31 C507 94 537 216 537 357 C537 378 540 403 530 412 C522 421 497 419 477 419 L354 419 C336 419 309 421 300 412 C290 402 293 372 293 349 C293 326 288 297 300 285 C319 266 366 290 382 270 C391 256 384 228 381 211 C374 180 356 146 331 134 C280 109 236 146 216 186 C200 220 192 265 188 314 C181 417 189 526 227 584 C238 601 248 611 264 618 C304 637 340 613 354 587 C362 572 364 542 381 538 C393 534 408 542 417 545 L451 559 C468 566 507 573 511 592 C513 604 505 619 500 630 C464 706 395 768 287 763 L287 763 Z " />
<glyph glyph-name="H" unicode="H" horiz-adv-x="555" d="M77 750 C51 747 53 730 53 701 L53 93 C53 66 49 16 60 5 C71 -6 107 -2 128 -2 C150 -2 186 -5 196 5 C208 18 202 57 202 78 L202 237 C202 258 199 300 209 310 C221 322 251 317 277 317 C302 317 334 321 345 310 C356 300 352 262 352 237 L352 78 C352 49 347 17 359 5 C370 -6 405 -2 427 -2 C448 -2 485 -5 495 5 C506 17 502 65 502 92 L502 655 C502 677 507 731 496 744 C486 755 451 751 425 751 C397 751 368 755 358 744 C349 733 352 699 352 677 L352 531 C352 513 355 474 345 465 C336 456 299 458 277 458 C255 458 221 453 209 465 C198 476 202 511 202 531 L202 678 C202 697 205 735 196 745 C184 756 94 753 77 750 L77 750 Z " />
<glyph glyph-name="I" unicode="I" horiz-adv-x="254" d="M79 753 C53 750 54 733 54 704 C54 659 54 600 54 563 L54 93 C54 65 50 17 61 6 C71 -4 103 -1 127 -1 C152 -1 182 -6 194 5 C207 16 202 67 202 95 L202 659 C202 688 206 736 195 747 C182 760 98 755 79 753 L79 753 Z " />
<glyph glyph-name="J" unicode="J" horiz-adv-x="389" d="M217 753 L215 753 C183 752 192 699 192 664 C192 515 193 378 192 231 C191 178 182 119 137 113 C118 111 107 117 95 128 C90 132 80 145 69 145 C59 145 49 134 43 127 C28 110 17 95 3 79 C-4 72 -14 64 -13 51 C-12 34 12 20 23 13 C40 2 55 -5 74 -11 C118 -25 170 -19 202 -7 C273 19 319 77 334 160 C341 202 340 251 340 303 L340 677 C340 701 343 736 334 746 C322 759 236 756 217 753 L217 753 Z " />
<glyph glyph-name="K" unicode="K" horiz-adv-x="513" d="M210 461 C199 479 202 504 202 527 L202 677 C202 700 205 734 195 745 C186 754 159 751 138 751 C107 751 69 758 57 743 C47 730 52 681 52 654 L52 95 C52 68 47 19 58 6 C68 -5 102 -2 128 -2 C153 -2 185 -5 195 5 C206 16 202 61 202 85 L202 258 C202 286 198 316 211 336 C223 328 228 313 233 300 C266 214 294 128 324 41 C329 27 335 9 345 3 C359 -6 395 -2 418 -2 C441 -2 481 -6 487 8 C493 21 479 47 474 60 C434 161 399 253 361 353 C355 368 344 389 345 405 C345 418 353 435 358 448 C393 534 423 612 457 697 C463 711 474 730 469 742 C463 757 427 751 405 751 C377 751 349 755 334 748 C317 739 307 700 300 680 C276 615 256 553 231 491 C226 480 222 465 210 461 L210 461 Z " />
<glyph glyph-name="L" unicode="L" horiz-adv-x="410" d="M79 753 C53 750 54 736 54 706 L54 95 C54 68 49 19 60 7 C71 -6 115 -1 141 -1 L320 -1 C345 -1 390 -6 403 6 C413 17 410 40 410 63 C410 83 412 112 403 121 C395 129 375 128 358 128 L306 128 C276 128 223 121 209 135 C198 146 202 183 202 206 L202 675 C202 701 205 737 195 747 C186 756 160 754 141 754 C116 754 90 754 79 753 L79 753 Z " />
<glyph glyph-name="M" unicode="M" horiz-adv-x="836" d="M614 431 C624 420 626 402 628 384 C643 272 656 165 670 56 C672 37 673 14 682 6 C693 -5 725 -1 750 -1 C774 -1 807 -6 818 7 C825 16 821 35 818 53 C787 262 758 468 727 676 C723 704 720 755 708 767 C695 778 629 779 612 769 C598 761 592 734 585 715 C542 595 501 479 457 357 C451 341 442 305 428 305 C414 305 405 342 399 358 C353 480 311 593 265 716 C258 734 250 763 237 770 C222 778 179 776 162 774 C135 771 134 751 130 723 C94 497 57 278 20 54 C17 37 13 16 19 7 C28 -6 65 -1 85 -1 C109 -1 142 -5 154 5 C162 12 165 35 168 53 C184 167 198 272 215 384 C217 398 220 430 231 431 C243 432 252 396 257 382 C297 266 336 157 374 43 C380 25 388 0 400 -7 C411 -13 431 -11 439 -6 C451 1 459 27 465 44 C506 158 545 270 586 382 C592 399 595 423 614 431 L614 431 Z " />
<glyph glyph-name="N" unicode="N" horiz-adv-x="759" d="M80 773 C67 771 64 769 60 763 C50 748 55 703 55 672 L55 94 C55 64 51 16 63 5 C75 -5 108 -1 129 -1 C149 -1 184 -5 195 5 C205 14 203 39 203 62 L203 433 C203 452 201 483 212 486 C222 489 235 471 242 461 C350 321 450 185 555 46 C569 27 586 -5 608 -13 C629 -20 691 -20 702 -8 C712 4 708 53 708 81 L708 654 C708 681 714 729 703 745 C694 758 658 754 634 754 C612 754 579 758 567 747 C558 738 560 710 560 690 L560 386 C560 359 562 324 560 295 C557 254 535 279 521 297 C414 436 313 573 209 713 C196 731 174 765 155 771 C138 777 91 774 80 773 L80 773 Z " />
<glyph glyph-name="O" unicode="O" horiz-adv-x="782" d="M367 773 C339 771 308 767 282 760 C207 739 148 697 107 646 C53 579 10 477 18 352 C26 232 65 144 131 80 C194 19 290 -26 414 -20 C531 -15 616 38 673 106 C731 175 769 274 763 399 C757 517 714 610 651 672 C588 734 492 780 367 773 L367 773 Z M286 600 C312 615 343 625 378 627 C450 632 509 600 546 559 C581 520 608 460 611 389 C614 315 591 251 558 207 C525 162 473 128 404 126 C253 121 181 225 171 364 C163 476 216 559 286 600 L286 600 Z " />
<glyph glyph-name="P" unicode="P" horiz-adv-x="487" d="M215 753 C194 752 164 753 134 753 C111 753 73 757 61 747 C49 737 53 688 53 657 C53 622 53 586 53 564 L53 96 C53 68 49 19 59 7 C69 -4 106 0 126 0 C153 0 180 -6 195 5 C207 15 203 47 203 78 L203 232 C203 256 199 293 210 303 C218 310 245 308 262 310 C387 320 460 395 464 525 C467 612 439 663 400 699 C359 737 290 756 215 753 L215 753 Z M203 579 C203 600 200 623 221 627 C224 628 236 629 243 628 C292 624 315 582 315 532 C315 493 300 457 269 443 C257 437 226 426 211 438 C203 444 203 462 203 480 L203 579 Z " />
<glyph glyph-name="Q" unicode="Q" horiz-adv-x="782" d="M370 773 C336 771 304 765 276 756 C248 746 223 735 201 722 C112 668 49 579 25 462 C12 396 15 325 31 265 C62 150 129 70 222 20 C271 -6 330 -24 399 -21 C449 -19 497 -9 535 7 C548 12 562 23 576 21 C603 17 609 -24 637 -29 C661 -33 676 -28 703 -25 C719 -23 758 -24 762 -11 C766 1 752 14 746 21 C738 31 731 41 724 48 C711 63 685 85 684 105 C684 119 699 139 707 153 C750 229 776 333 758 447 C752 489 740 525 725 557 C671 677 550 783 370 773 L370 773 Z M287 604 C312 619 342 629 378 632 C481 639 549 569 583 501 C599 469 615 421 610 362 C608 338 605 314 597 291 C591 272 581 241 564 240 C547 239 536 259 528 268 C519 278 510 293 494 298 C475 304 447 298 423 296 C407 295 364 298 361 281 C359 268 377 254 383 246 L435 185 C443 176 458 165 456 150 C454 133 420 125 398 123 C323 118 267 153 232 193 C196 234 172 288 170 367 C169 440 193 503 226 547 C243 569 261 588 287 604 L287 604 Z " />
<glyph glyph-name="R" unicode="R" horiz-adv-x="530" d="M481 8 C485 26 476 39 472 52 C441 132 411 212 380 293 C375 306 365 323 368 337 C369 347 386 358 395 366 C426 393 447 425 459 472 C476 539 465 614 438 659 C410 704 364 734 298 746 C251 754 191 753 135 753 C108 753 67 759 57 742 C48 726 53 679 53 653 L53 93 C53 65 48 18 60 6 C71 -5 106 0 127 0 C150 0 181 -5 195 5 C206 14 202 55 202 78 L202 232 C202 258 199 285 211 301 C222 295 228 281 233 270 C259 205 281 142 305 76 C314 53 322 15 340 5 C356 -4 386 0 412 0 C439 0 469 -4 481 8 L481 8 Z M202 576 C202 604 200 625 227 628 C292 635 325 587 321 521 C318 484 299 451 273 439 C260 432 225 422 210 435 C197 446 202 501 202 526 L202 576 Z " />
<glyph glyph-name="S" unicode="S" horiz-adv-x="526" d="M258 773 C220 771 190 761 164 746 C136 730 117 712 100 691 C67 649 42 582 55 506 C73 405 156 366 239 333 C294 311 356 287 349 205 C344 149 300 100 232 113 C192 120 159 149 139 179 C133 189 125 206 113 207 C101 208 94 196 88 191 C80 183 72 177 66 171 C53 158 31 143 30 124 C29 105 54 79 65 67 C109 19 168 -21 254 -21 C313 -21 359 -7 398 19 C469 65 517 162 500 280 C484 388 404 427 316 465 C275 483 224 500 209 543 C203 561 207 586 213 599 C225 623 248 642 282 647 C314 651 345 641 362 631 C380 620 392 598 409 600 C426 602 437 629 444 640 C454 654 472 670 470 689 C469 706 447 718 433 726 C389 753 321 777 258 773 L258 773 Z " />
<glyph glyph-name="T" unicode="T" horiz-adv-x="414" d="M39 752 C8 748 15 719 15 681 C15 657 12 629 22 620 C41 600 105 626 125 606 C136 594 132 559 132 537 L132 76 C132 51 128 17 138 6 C149 -5 184 0 206 0 C232 0 263 -5 274 6 C285 17 281 48 281 76 L281 537 C281 560 277 597 289 607 C311 626 372 599 392 620 C402 630 399 658 399 682 C399 707 402 733 393 745 C384 757 333 753 308 753 L130 753 C99 753 61 755 39 752 L39 752 Z " />
<glyph glyph-name="U" unicode="U" horiz-adv-x="660" d="M75 753 C43 749 50 719 50 685 L50 487 C50 397 44 308 55 229 C76 79 158 -23 332 -21 C496 -19 587 74 607 231 C617 313 611 402 611 490 L611 688 C611 708 613 737 604 747 C592 758 558 754 535 754 C509 754 480 757 470 747 C462 739 463 722 463 706 L463 366 C463 238 458 110 331 109 C265 109 234 144 217 189 C199 236 198 298 198 365 L198 656 C198 680 204 734 191 747 C182 756 157 754 137 754 C114 754 87 755 75 753 L75 753 Z " />
<glyph glyph-name="V" unicode="V" horiz-adv-x="639" d="M15 753 C-21 748 1 714 9 692 C91 466 171 252 256 27 C262 10 269 -10 279 -16 C292 -24 342 -25 356 -16 C365 -10 372 8 379 26 C463 249 549 470 631 693 C636 706 649 731 644 744 C638 759 603 754 575 754 C550 754 518 759 501 749 C486 740 482 716 475 694 C433 570 393 452 354 326 C350 315 339 272 326 272 C312 272 302 312 297 326 C251 453 212 569 167 694 C159 715 152 741 138 749 C125 756 99 754 80 754 C55 754 29 755 15 753 L15 753 Z " />
<glyph glyph-name="W" unicode="W" horiz-adv-x="793" d="M242 316 C232 330 231 349 229 367 C212 479 190 587 170 699 C167 717 164 741 154 748 C144 754 117 753 98 753 C75 753 54 755 35 753 C3 749 14 722 20 694 C61 491 100 293 141 89 C146 64 151 15 168 5 C182 -4 202 0 226 0 C247 0 272 -3 283 5 C295 12 299 38 304 58 C331 184 358 303 382 426 C386 446 387 468 401 483 C415 469 415 446 418 427 C438 300 464 183 488 59 C493 34 494 13 508 5 C522 -4 605 -5 620 4 C637 13 642 65 647 91 C691 295 732 493 773 697 C776 713 782 736 776 745 C767 758 732 753 707 753 C681 753 648 757 635 748 C623 739 622 716 618 694 C600 580 577 466 563 351 C560 332 562 310 549 298 C537 311 535 331 532 348 C508 465 490 579 468 696 C464 715 461 740 450 748 C439 755 419 753 398 753 C378 753 356 754 345 748 C334 741 331 716 327 697 C303 585 280 477 259 367 C255 349 253 329 242 316 L242 316 Z " />
<glyph glyph-name="X" unicode="X" horiz-adv-x="623" d="M619 9 C619 31 605 46 596 61 C541 157 486 251 430 347 C421 362 406 384 406 399 C406 414 420 432 427 445 L576 698 C583 710 601 731 595 745 C591 753 577 754 563 754 C530 755 462 760 441 750 C426 743 417 719 408 700 C389 659 375 630 356 590 C350 577 340 541 324 541 C315 541 308 555 304 562 C278 609 257 654 233 699 C223 718 213 744 200 750 C186 757 156 754 134 754 C106 754 87 757 63 754 C26 750 51 716 62 696 C111 610 158 530 207 445 C214 432 227 413 227 399 C227 382 210 361 202 348 C142 249 89 158 29 61 C20 47 0 25 6 9 C12 -7 53 -1 78 -1 C109 -1 140 -5 158 2 C175 9 189 44 199 64 C229 121 255 173 285 229 C291 240 298 256 309 256 C320 256 327 240 333 229 C365 170 392 123 424 65 C435 44 447 12 465 3 C481 -5 517 -1 546 -1 C574 -1 604 -6 619 9 L619 9 Z " />
<glyph glyph-name="Y" unicode="Y" horiz-adv-x="514" d="M30 752 L28 752 C-3 746 20 709 28 691 C72 595 115 507 158 413 C165 397 173 380 178 365 C184 344 182 310 182 277 L182 91 C182 70 177 17 190 5 C199 -3 232 0 256 0 C281 0 312 -4 323 5 C335 16 331 64 331 89 L331 274 C331 306 327 338 333 363 C338 379 347 395 354 411 C397 506 437 599 480 692 C485 703 501 730 496 743 C489 759 442 753 424 753 C396 753 363 757 346 749 C330 741 325 715 320 700 C305 659 294 629 280 589 C276 579 267 539 254 540 C242 541 232 576 228 589 C212 630 201 661 186 700 C178 719 172 742 158 749 C144 755 115 753 96 753 C72 753 48 754 30 752 L30 752 Z " />
<glyph glyph-name="Z" unicode="Z" horiz-adv-x="508" d="M74 752 C65 750 58 750 54 744 C45 732 49 697 49 682 C49 666 47 630 55 620 C64 610 87 613 106 613 L160 613 C186 613 252 619 257 601 C261 588 251 573 246 561 C175 388 108 222 37 48 C32 36 23 18 28 8 C33 -2 56 0 75 0 L356 0 C382 0 449 -7 463 5 C474 15 471 45 471 71 C471 93 474 124 464 134 C456 142 433 141 413 141 L294 141 C270 141 250 139 246 151 C242 162 251 178 256 190 C329 364 398 530 472 704 C477 716 486 734 481 744 C473 759 413 753 386 753 L179 753 C142 753 101 755 74 752 L74 752 Z " />
<glyph glyph-name="bracketleft" unicode="&#x5b;" horiz-adv-x="288" d="M69 844 C40 840 44 820 44 783 L44 28 C44 -6 38 -67 50 -83 C57 -92 76 -91 94 -91 L143 -91 C172 -91 222 -97 235 -85 C247 -74 247 -16 235 -6 C217 10 172 -9 157 8 C147 20 151 67 151 95 L151 659 C151 688 146 733 158 746 C171 760 222 746 236 760 C248 772 247 825 237 837 C226 850 187 845 158 845 C126 845 90 847 69 844 L69 844 Z " />
<glyph glyph-name="backslash" unicode="&#x5c;" horiz-adv-x="539" d="M60 847 C24 842 49 805 59 782 C167 536 268 294 376 51 C385 31 393 10 404 4 C421 -4 495 -4 500 10 C506 24 490 51 483 66 C376 311 269 555 165 798 C157 817 151 839 136 845 C120 852 74 849 60 847 L60 847 Z " />
<glyph glyph-name="bracketright" unicode="&#x5d;" horiz-adv-x="288" d="M69 844 C57 842 54 841 49 834 C41 821 40 770 52 759 C70 744 114 764 130 745 C140 733 136 685 136 658 L136 94 C136 66 141 19 129 7 C114 -9 63 7 50 -8 C41 -19 40 -72 51 -84 C65 -98 120 -91 143 -91 C169 -91 222 -97 235 -84 C248 -71 242 -6 242 26 L242 728 C242 753 249 825 235 838 C223 850 181 845 156 845 C126 845 90 847 69 844 L69 844 Z " />
<glyph glyph-name="asciicircum" unicode="&#x5e;" horiz-adv-x="578" d="M246 753 C218 749 213 726 202 703 C155 600 108 496 62 394 C56 380 39 353 44 339 C50 325 79 329 97 329 C123 329 145 327 157 333 C174 341 183 375 192 395 C217 451 242 505 267 562 C272 572 280 589 289 589 C299 589 307 571 311 563 C339 504 360 451 386 394 C396 373 405 341 423 333 C437 327 463 329 482 329 C502 329 529 325 534 341 C538 355 523 379 515 395 C466 503 423 598 374 705 C366 724 356 744 343 750 C324 758 262 755 246 753 L246 753 Z " />
<glyph glyph-name="underscore" unicode="&#x5f;" horiz-adv-x="500" d="M-7 -71 C-16 -72 -23 -74 -27 -79 C-38 -93 -35 -153 -26 -163 C-15 -176 32 -171 58 -171 L435 -171 C462 -171 509 -175 521 -164 C531 -154 533 -93 522 -78 C513 -66 461 -70 437 -70 L84 -70 C54 -70 18 -68 -7 -71 L-7 -71 Z " />
<glyph glyph-name="grave" unicode="&#x60;" horiz-adv-x="380" d="M174 768 C157 767 141 753 126 744 C113 736 89 725 89 711 C89 696 111 680 120 671 C146 645 166 625 192 601 C203 591 216 571 232 570 C244 570 258 580 267 586 C278 593 291 600 292 612 C293 627 274 645 267 655 C245 685 231 708 211 735 C202 748 190 769 174 768 L174 768 Z " />
<glyph glyph-name="a" unicode="a" horiz-adv-x="528" d="M203 750 C176 747 177 729 170 701 C122 487 71 268 20 54 C16 37 9 15 16 6 C24 -5 58 -2 81 -2 C104 -2 134 -6 149 3 C161 12 164 40 169 64 C174 83 177 114 192 122 C209 130 233 126 262 126 C283 126 314 129 327 120 C338 111 343 81 347 61 C352 39 354 12 366 3 C380 -6 412 -2 442 -2 C465 -2 501 -7 510 6 C517 15 512 36 507 53 C458 257 410 457 362 659 C355 687 349 736 332 747 C320 755 292 751 271 751 C246 751 218 752 203 750 L203 750 Z M237 439 C241 460 244 487 254 500 C266 498 269 462 272 442 C280 402 289 356 297 318 C300 301 310 265 302 253 C296 243 275 244 258 244 C241 244 222 241 214 253 C206 265 215 298 218 315 C225 358 231 398 237 439 L237 439 Z " />
<glyph glyph-name="b" unicode="b" horiz-adv-x="553" d="M79 753 C55 750 54 736 54 704 C54 660 54 595 54 563 L54 93 C54 65 50 17 61 6 C70 -3 96 -1 116 -1 C179 -1 247 -3 301 0 C419 7 497 54 520 153 C543 249 509 342 452 381 C442 388 418 395 417 409 C417 418 425 426 429 432 C460 475 470 545 459 604 C442 704 371 749 257 754 C230 755 199 754 169 754 C139 754 103 756 79 753 L79 753 Z M202 544 C202 581 194 627 221 633 C262 641 300 619 313 595 C339 549 326 475 289 454 C277 447 228 431 210 446 C196 458 202 517 202 544 L202 544 Z M202 272 C202 299 199 322 226 326 C280 334 334 316 354 296 C393 257 384 165 337 137 C323 128 300 122 277 120 C256 118 222 112 209 125 C197 138 202 195 202 221 L202 272 Z " />
<glyph glyph-name="c" unicode="c" horiz-adv-x="452" d="M345 760 C230 758 150 696 102 627 C51 555 15 454 28 331 C40 218 87 129 146 74 C194 30 255 -4 345 -8 C372 -10 410 -9 422 7 C431 19 428 51 428 75 C428 100 431 130 419 136 C408 143 388 136 376 135 C327 133 299 147 269 172 C201 228 166 351 196 467 C217 550 275 623 379 616 C395 615 412 612 420 618 C432 627 428 658 428 680 C428 703 430 730 422 743 C411 759 364 761 345 760 L345 760 Z " />
<glyph glyph-name="d" unicode="d" horiz-adv-x="646" d="M79 753 C52 749 54 730 54 701 L54 93 C54 65 50 17 61 6 C70 -2 92 -1 112 -1 C175 -1 232 -3 287 0 C362 4 420 28 465 57 C559 117 623 218 629 363 C636 517 565 626 482 686 C439 718 383 743 312 751 C278 755 239 754 198 754 C161 754 114 757 79 753 L79 753 Z M202 560 C202 594 196 620 227 624 C264 629 311 618 339 608 C430 575 482 492 476 364 C470 222 402 144 265 130 C247 128 220 126 210 134 C195 147 202 223 202 250 C202 330 202 418 202 498 L202 560 Z " />
<glyph glyph-name="e" unicode="e" horiz-adv-x="392" d="M77 750 C70 750 62 749 57 743 C47 730 52 678 52 654 C52 554 52 475 52 373 L52 91 C52 63 48 15 60 4 C70 -4 108 -2 129 -2 L279 -2 C301 -2 338 -5 348 5 C358 15 354 46 354 67 C354 88 359 120 349 132 C330 153 234 129 211 144 C197 154 202 204 202 225 C202 247 196 291 210 303 C230 320 310 297 328 315 C338 325 335 357 335 377 C335 393 339 429 329 441 C312 460 226 438 209 455 C198 466 202 506 202 529 C202 559 197 589 208 604 C217 615 255 612 278 612 C302 612 335 607 346 618 C356 629 352 661 352 681 C352 703 356 734 346 745 C337 754 306 751 284 751 L215 751 C168 751 107 754 77 750 L77 750 Z " />
<glyph glyph-name="f" unicode="f" horiz-adv-x="394" d="M77 750 C51 747 53 731 53 701 C53 583 53 496 53 373 L53 93 C53 63 48 17 60 5 C70 -5 105 -2 129 -2 C154 -2 183 -6 195 4 C205 13 203 47 203 74 L203 231 C203 259 199 291 208 304 C217 315 251 311 271 311 C290 311 320 307 331 317 C341 326 339 355 339 379 C339 399 342 433 333 443 C322 455 288 451 271 451 C254 451 219 447 208 459 C198 471 203 506 203 531 C203 555 196 588 208 604 C217 616 258 612 279 612 C297 612 337 608 347 618 C358 629 354 658 354 681 C354 707 357 735 347 745 C338 754 307 751 285 751 L216 751 C167 751 116 755 77 750 L77 750 Z " />
<glyph glyph-name="g" unicode="g" horiz-adv-x="739" d="M364 773 C343 772 321 770 300 765 C169 735 84 642 43 527 C18 458 9 362 27 280 C43 206 74 142 121 91 C178 29 251 -14 362 -20 C431 -24 491 -8 537 16 C641 70 704 182 718 330 C719 348 724 381 714 393 C704 404 666 401 637 401 L475 401 C451 401 412 405 401 394 C391 385 394 358 394 342 C394 320 392 297 400 288 C410 276 446 280 474 280 C499 280 537 284 547 271 C560 253 536 210 527 196 C501 155 465 124 413 114 C315 94 250 154 216 207 C190 248 174 297 171 359 C167 422 182 478 203 521 C234 584 288 640 376 643 C452 646 505 600 535 556 C541 546 548 533 561 532 C572 531 583 540 593 545 L623 561 C642 571 673 580 675 600 C676 614 663 630 656 641 C598 721 500 780 364 773 L364 773 Z " />
<glyph glyph-name="h" unicode="h" horiz-adv-x="674" d="M79 753 C53 749 54 734 54 704 L54 95 C54 71 50 19 60 7 C72 -6 103 -1 127 -1 C153 -1 184 -5 195 6 C208 18 202 59 202 83 L202 253 C202 280 198 319 210 330 C221 339 254 336 271 336 L405 336 C426 336 457 339 466 329 C478 318 473 278 473 253 L473 85 C473 61 469 19 479 7 C489 -5 519 -1 546 -1 C571 -1 600 -4 612 4 C627 13 621 65 621 93 L621 659 C621 681 628 733 614 747 C603 758 569 754 547 754 C523 754 491 758 480 747 C470 736 473 700 473 680 L473 532 C473 509 477 474 466 464 C457 455 430 457 403 457 L271 457 C250 457 222 454 210 463 C199 472 202 510 202 532 L202 680 C202 698 206 736 195 747 C186 757 159 754 141 754 C117 754 97 755 79 753 L79 753 Z " />
<glyph glyph-name="i" unicode="i" horiz-adv-x="255" d="M77 750 C52 747 53 731 53 703 C53 657 53 600 53 562 L53 93 C53 66 49 16 60 5 C70 -5 106 -2 129 -2 C156 -2 185 -7 197 6 C207 18 202 67 202 94 C202 191 202 286 202 375 L202 657 C202 684 207 733 196 745 C186 754 160 751 140 751 C116 751 87 752 77 750 L77 750 Z " />
<glyph glyph-name="j" unicode="j" horiz-adv-x="352" d="M20 138 C9 125 13 102 13 79 C13 57 10 30 17 16 C23 3 44 -4 62 -7 C81 -11 104 -14 125 -13 C235 -11 286 53 300 152 C309 210 305 279 305 348 L305 650 C305 680 311 732 298 745 C289 754 263 751 243 751 C220 751 197 753 181 751 C147 748 155 710 155 671 L155 284 C155 233 159 173 141 144 C128 123 96 112 63 123 C51 127 36 141 20 138 L20 138 Z " />
<glyph glyph-name="k" unicode="k" horiz-adv-x="620" d="M79 753 C74 752 64 752 59 745 C49 732 54 683 54 657 L54 93 C54 65 50 17 61 6 C72 -5 105 -1 128 -1 C154 -1 182 -6 195 6 C206 17 202 55 202 79 L202 241 C202 262 198 310 212 312 C222 314 237 290 246 278 C304 197 358 118 416 38 C426 24 436 8 450 3 C471 -5 507 -1 539 -1 C567 -1 613 -7 618 10 C620 20 612 29 606 38 C527 146 450 247 372 353 C362 366 339 388 340 406 C340 420 358 439 369 451 C439 535 500 612 572 698 C578 706 605 728 601 744 C597 759 551 754 526 754 C499 754 462 756 443 751 C429 747 420 732 410 718 C354 641 302 569 245 493 C237 483 222 459 211 462 C198 465 202 506 202 527 L202 677 C202 705 204 735 196 746 C188 757 160 754 140 754 C116 754 90 754 79 753 L79 753 Z " />
<glyph glyph-name="l" unicode="l" horiz-adv-x="373" d="M77 750 L75 750 C43 750 52 692 52 655 L52 96 C52 69 48 21 57 7 C66 -5 105 -2 128 -2 L280 -2 C302 -2 338 -6 350 4 C361 14 358 41 358 67 C358 92 361 122 351 133 C339 144 306 139 280 139 C246 139 219 136 209 146 C199 156 202 191 202 219 L202 675 C202 701 205 735 195 745 C186 754 160 751 140 751 C116 751 86 752 77 750 L77 750 Z " />
<glyph glyph-name="m" unicode="m" horiz-adv-x="722" d="M358 364 C346 374 345 391 342 406 C328 487 314 573 302 654 C298 677 294 736 278 747 C265 756 220 751 196 751 C164 751 138 754 113 751 C87 748 87 731 84 701 C65 496 49 300 32 97 C29 72 19 18 31 5 C42 -7 80 -2 102 -2 C127 -2 164 -6 176 4 C186 12 185 37 186 57 C190 169 193 284 201 392 C202 409 200 429 210 441 C221 429 224 409 227 391 C248 276 270 168 293 55 C297 35 300 14 310 5 C322 -4 400 -6 413 3 C424 11 426 35 430 55 C451 173 472 285 490 404 C493 422 495 443 507 456 C518 427 520 386 522 347 C528 247 535 153 541 54 C542 32 544 10 553 3 C566 -6 599 -2 625 -2 C649 -2 681 -6 691 6 C697 14 695 36 693 51 C672 256 651 453 629 656 C626 680 628 732 614 745 C601 758 542 751 519 751 C493 751 438 758 424 745 C416 737 415 718 412 701 C398 602 388 502 373 406 C370 390 369 373 358 364 L358 364 Z " />
<glyph glyph-name="n" unicode="n" horiz-adv-x="573" d="M365 366 C350 373 344 392 337 408 C296 507 256 604 216 704 C209 721 203 742 191 749 C179 755 155 753 136 753 C109 753 69 759 58 744 C47 730 53 682 53 655 L53 94 C53 66 48 18 59 6 C70 -4 103 0 127 0 C152 0 182 -4 195 5 C204 12 202 34 202 51 L202 354 C202 370 199 388 208 399 C224 390 229 370 235 354 C279 251 319 151 360 47 C367 29 374 8 387 3 C402 -4 429 0 452 0 C475 0 503 -5 514 6 C526 18 521 66 521 93 L521 658 C521 684 526 734 514 746 C503 757 467 753 445 753 C422 753 387 756 377 745 C365 731 371 680 371 654 L371 409 C371 393 373 377 365 366 L365 366 Z " />
<glyph glyph-name="o" unicode="o" horiz-adv-x="582" d="M288 764 C236 764 194 748 162 726 C96 682 59 610 40 521 C8 376 29 205 88 107 C126 41 199 -16 296 -12 C392 -8 458 42 498 111 C538 181 556 269 556 380 C556 483 535 578 495 645 C455 710 389 766 288 764 L288 764 Z M221 577 C234 601 252 621 284 624 C313 628 338 611 351 593 C398 532 405 382 389 274 C380 216 364 156 321 135 C301 125 271 126 251 141 C242 147 231 160 225 171 C173 256 171 488 221 577 L221 577 Z " />
<glyph glyph-name="p" unicode="p" horiz-adv-x="528" d="M80 753 C55 750 55 735 55 705 C55 586 55 492 55 376 L55 94 C55 65 51 17 62 6 C72 -5 107 -1 129 -1 C154 -1 184 -6 196 6 C205 16 203 47 203 69 L203 210 C203 232 200 264 210 274 C222 287 261 280 283 281 C360 284 410 300 452 340 C501 388 530 472 513 576 C498 663 450 715 371 739 C314 756 232 754 158 754 C134 754 102 756 80 753 L80 753 Z M208 622 C212 628 219 629 228 630 C284 637 336 617 354 582 C380 528 364 446 323 421 C309 413 287 408 269 406 C249 404 220 401 210 411 C196 424 203 489 203 516 L203 572 C203 584 200 612 208 622 L208 622 Z " />
<glyph glyph-name="q" unicode="q" horiz-adv-x="582" d="M289 764 C232 764 185 744 150 718 C80 664 45 576 32 467 C11 287 49 118 146 39 C182 9 228 -9 280 -12 C328 -15 364 -4 394 11 C403 16 417 26 427 25 C440 24 449 11 457 3 C464 -4 475 -20 488 -20 C504 -20 516 -2 526 8 C536 17 556 30 556 46 C555 60 542 69 531 79 C524 87 509 99 508 114 C507 127 518 144 524 159 C561 257 566 420 540 533 C513 653 436 765 289 764 L289 764 Z M203 531 C214 571 237 618 284 624 C310 628 335 613 349 596 C392 544 401 438 396 335 C395 309 395 253 378 250 C364 248 355 265 347 274 C338 283 329 296 316 297 C299 298 285 279 276 270 C265 259 248 248 248 232 C247 214 271 197 281 187 C288 180 293 173 299 167 C305 160 315 152 314 142 C312 128 289 125 270 131 C249 138 234 155 223 173 C179 250 175 430 203 531 L203 531 Z " />
<glyph glyph-name="r" unicode="r" horiz-adv-x="558" d="M79 753 C54 750 54 737 54 704 C54 584 54 496 54 375 L54 93 C54 69 50 17 61 6 C71 -4 103 -1 128 -1 C152 -1 183 -6 195 6 C204 16 202 46 202 69 L202 211 C202 229 198 270 211 273 C221 275 232 253 238 244 L344 68 C355 48 373 11 392 3 C407 -3 442 -1 475 -1 C500 -1 545 -7 550 10 C553 22 539 39 532 50 C480 127 434 194 385 269 C378 280 362 296 365 310 C367 322 391 329 403 335 C467 369 512 447 505 546 C496 665 432 729 327 748 C292 754 250 754 207 754 C165 754 117 758 79 753 L79 753 Z M202 573 C202 603 197 628 227 632 C265 637 313 620 332 601 C372 559 362 462 319 431 C306 422 288 416 269 412 C251 409 223 402 210 413 C195 425 202 490 202 517 L202 573 Z " />
<glyph glyph-name="s" unicode="s" horiz-adv-x="440" d="M231 764 C158 764 108 732 76 686 C46 643 27 571 39 498 C55 399 125 353 194 306 C217 290 241 272 253 247 C263 226 262 193 253 173 C239 146 211 128 171 129 C150 129 132 135 118 140 C106 144 84 159 72 154 C59 149 63 115 63 96 C63 72 60 46 66 32 C77 5 133 -6 163 -10 C214 -16 253 -7 284 5 C345 31 389 90 403 166 C411 208 409 255 398 291 C370 382 288 417 228 471 C202 494 170 540 188 589 C193 602 208 617 223 623 C248 634 287 627 306 620 C318 615 342 593 356 599 C369 605 364 641 364 658 C364 684 367 709 360 723 C353 739 327 747 306 754 C282 761 250 764 231 764 L231 764 Z " />
<glyph glyph-name="t" unicode="t" horiz-adv-x="451" d="M24 753 C13 752 7 750 3 743 C-7 726 -4 642 6 632 C17 621 49 625 74 625 C101 625 130 629 143 619 C154 610 151 569 151 545 L151 77 C151 52 148 16 158 6 C169 -5 200 -1 225 -1 C254 -1 282 -4 292 6 C302 16 299 52 299 77 L299 546 C299 571 295 607 306 618 C318 630 353 625 375 625 C397 625 432 620 444 632 C454 642 451 669 451 689 C451 711 454 737 444 747 C431 760 373 754 345 754 L132 754 C96 754 53 757 24 753 L24 753 Z " />
<glyph glyph-name="u" unicode="u" horiz-adv-x="544" d="M73 752 C43 748 49 720 49 688 L49 256 C49 211 48 173 55 140 C74 37 149 -12 273 -12 C354 -12 417 9 454 53 C495 103 495 167 495 259 L495 690 C495 707 497 736 488 746 C477 757 444 753 420 753 C397 753 363 757 352 746 C341 735 345 701 345 678 L345 299 C345 252 350 189 334 158 C322 132 287 115 247 128 C192 146 198 228 198 299 L198 675 C198 696 202 732 193 745 C185 755 155 753 135 753 C112 753 86 753 73 752 L73 752 Z " />
<glyph glyph-name="v" unicode="v" horiz-adv-x="565" d="M286 312 C272 323 272 344 267 362 C239 473 211 584 183 697 C178 715 174 741 163 748 C152 755 123 753 103 753 C82 753 59 755 37 753 C4 749 19 718 26 693 C86 487 140 295 200 90 C206 68 216 13 233 4 C244 -2 270 0 289 0 C307 0 332 -2 343 5 C353 11 357 29 362 47 C422 262 482 479 541 693 C545 707 555 730 550 742 C544 757 506 753 482 753 C454 753 420 756 407 748 C396 741 391 718 387 699 C381 678 377 658 373 643 C350 549 323 459 303 364 C299 346 299 325 286 312 L286 312 Z " />
<glyph glyph-name="w" unicode="w" horiz-adv-x="977" d="M465 763 C434 759 432 725 425 700 C389 573 356 453 318 326 C313 309 305 271 292 271 C279 271 271 312 267 325 C229 450 195 569 158 693 C153 712 148 741 134 749 C121 757 88 754 61 754 C34 754 3 759 -5 745 C-11 733 -1 709 3 695 C72 473 141 252 211 30 C217 13 221 -6 232 -12 C247 -20 317 -18 328 -11 C338 -4 345 23 351 42 L453 396 C458 413 463 448 478 447 C491 446 499 405 502 395 C541 270 572 164 610 41 C616 21 622 -5 634 -12 C649 -20 715 -20 729 -12 C739 -6 746 13 751 29 C826 251 898 472 971 692 C976 707 987 732 982 743 C976 759 948 754 916 754 C891 754 861 760 843 750 C831 743 825 715 819 695 C782 569 749 450 712 323 C708 311 699 269 686 271 C673 273 666 309 661 327 C622 456 587 577 549 703 C542 727 538 753 524 760 C511 767 478 765 465 763 L465 763 Z " />
<glyph glyph-name="x" unicode="x" horiz-adv-x="545" d="M52 752 C19 747 36 720 47 694 C84 607 122 523 161 435 C167 421 176 407 177 389 C178 371 167 354 161 339 C122 244 84 153 46 60 C41 47 27 21 32 9 C39 -7 84 0 105 0 C133 0 167 -5 184 4 C197 10 203 33 210 51 C224 88 234 115 245 154 C249 166 257 201 268 201 C274 200 278 191 282 179 C299 130 312 94 330 49 C337 31 344 10 356 4 C370 -4 405 0 437 0 C457 0 506 -7 512 9 C517 22 503 45 497 59 C455 154 415 245 373 338 C366 354 356 370 355 387 C354 403 365 421 371 435 C411 524 446 607 486 696 C492 710 506 730 500 744 C493 758 450 753 432 753 C404 753 372 756 357 750 C344 744 338 726 331 709 C315 674 305 650 293 613 C289 603 280 568 269 568 C258 568 252 599 247 612 C234 648 224 674 210 707 C204 722 197 743 185 749 C172 755 144 753 121 753 C94 753 66 753 52 752 L52 752 Z " />
<glyph glyph-name="y" unicode="y" horiz-adv-x="587" d="M15 753 L13 753 C-22 747 10 706 20 689 C77 590 133 496 189 395 C200 376 215 354 217 330 C221 281 217 225 217 166 L217 84 C217 57 215 18 223 7 C232 -5 267 -1 292 -1 C318 -1 348 -5 358 6 C369 17 365 63 365 85 L365 259 C365 287 362 322 367 344 C371 360 384 378 394 395 C451 493 508 592 566 691 C573 703 595 727 589 744 C583 760 538 754 517 754 C491 754 456 759 437 751 C421 744 407 712 396 693 C367 639 341 591 310 537 C305 528 298 511 286 512 C270 513 257 553 249 568 C227 613 208 648 186 692 C177 710 165 743 150 750 C136 757 107 754 84 754 C58 754 34 755 15 753 L15 753 Z " />
<glyph glyph-name="z" unicode="z" horiz-adv-x="575" d="M17 8 C31 -6 54 -1 75 -1 L482 -1 C505 -1 533 -3 544 5 C555 13 552 42 552 64 C552 87 555 111 545 121 C534 132 496 128 472 128 L318 128 C293 128 257 125 252 139 C249 149 260 169 266 180 C361 357 449 526 543 703 C549 715 562 734 557 745 C552 755 526 754 506 754 L203 754 C161 754 117 758 81 754 C49 750 55 723 55 687 C55 667 53 641 62 632 C71 623 100 625 124 625 L263 625 C282 625 317 628 322 614 C326 603 314 585 308 573 C215 398 123 223 31 50 C24 37 13 24 17 8 L17 8 Z " />
<glyph glyph-name="braceleft" unicode="&#x7b;" horiz-adv-x="389" d="M233 837 C188 833 163 795 151 758 C140 725 142 682 142 636 C142 593 143 546 141 506 C138 461 127 430 109 406 C99 393 75 382 69 364 C65 353 65 321 70 308 C75 293 95 284 107 269 C150 216 142 130 142 41 C142 -6 140 -49 150 -82 C160 -115 180 -145 206 -158 C224 -167 301 -171 314 -157 C323 -147 323 -93 314 -82 C304 -71 274 -74 264 -66 C243 -50 249 3 249 39 L249 159 C249 224 235 264 210 300 C202 310 185 324 186 337 C186 350 204 365 210 373 C219 386 226 398 232 412 C254 467 249 557 249 638 C249 680 243 728 268 741 C278 747 303 744 313 753 C324 764 324 816 314 830 C304 842 248 838 233 837 L233 837 Z " />
<glyph glyph-name="bar" unicode="&#x7c;" horiz-adv-x="538" d="M235 785 C204 781 210 752 210 718 L210 -88 C210 -116 203 -191 216 -206 C228 -220 314 -217 323 -206 C329 -198 329 -172 329 -150 L329 723 C329 745 330 771 322 779 C310 790 251 787 235 785 L235 785 Z " />
<glyph glyph-name="braceright" unicode="&#x7d;" horiz-adv-x="389" d="M94 837 C87 836 79 836 74 829 C65 817 65 763 77 752 C89 742 110 748 122 741 C145 728 140 675 140 630 L140 511 C140 451 156 407 180 373 C186 365 204 350 203 336 C203 324 187 310 179 300 C153 263 140 222 140 159 L140 39 C140 -1 148 -49 124 -66 C113 -74 90 -71 77 -80 C65 -89 66 -148 76 -158 C88 -169 151 -167 169 -163 C207 -155 233 -111 242 -71 C261 11 234 146 256 220 C263 241 273 257 283 269 C295 283 315 292 320 309 C325 322 324 352 319 365 C314 379 297 388 284 402 C273 415 264 430 258 449 C233 528 257 637 245 727 C239 775 214 819 179 833 C162 840 109 839 94 837 L94 837 Z " />
<glyph glyph-name="asciitilde" unicode="&#x7e;" horiz-adv-x="578" d="M170 381 C162 380 153 378 145 374 C108 356 81 315 57 279 C49 267 36 254 38 239 C39 227 46 222 54 215 C69 201 82 189 97 176 C103 171 114 161 124 162 C136 163 143 182 151 194 C158 206 168 221 182 223 C200 226 220 214 235 205 C250 196 265 184 277 176 C306 157 339 134 375 131 C393 129 413 132 425 137 C463 152 493 193 516 228 C524 240 535 256 534 271 C532 288 509 304 496 316 C485 325 482 328 474 335 C468 340 457 351 447 350 C433 349 427 328 421 317 C414 306 404 292 390 289 C370 284 347 298 333 306 C287 333 242 391 170 381 L170 381 Z " />
<glyph glyph-name="exclamdown" unicode="&#xa1;" horiz-adv-x="325" d="M149 513 C106 507 73 472 74 425 C75 388 97 358 126 345 C188 317 246 365 251 417 C257 480 207 521 149 513 L149 513 Z M116 273 C84 269 91 241 91 204 C91 177 91 155 91 138 L91 -194 C91 -217 90 -245 97 -255 C105 -266 140 -263 162 -263 C183 -263 212 -269 226 -257 C236 -248 234 -222 234 -195 L234 205 C234 223 236 255 228 266 C220 276 192 274 175 274 C153 274 128 275 116 273 L116 273 Z " />
<glyph glyph-name="cent" unicode="&#xa2;" horiz-adv-x="578" d="M341 723 L339 723 C302 722 326 670 311 648 C304 637 282 634 268 629 C171 596 105 507 105 378 C105 253 174 158 269 128 C281 124 304 121 311 110 C322 93 309 49 323 35 C332 26 372 24 383 35 C397 49 383 91 393 110 C400 123 422 126 432 129 C447 134 463 139 469 151 C476 164 473 189 473 212 C473 232 475 265 463 268 C451 271 434 254 421 249 C408 243 388 238 371 238 C291 238 246 307 248 380 C249 421 263 453 283 477 C313 512 371 534 424 509 C432 505 450 486 464 490 C477 494 473 528 473 547 C473 571 476 595 468 608 C461 620 446 624 432 628 C419 632 401 633 394 647 C384 667 397 701 384 716 C376 725 355 725 341 723 L341 723 Z " />
<glyph glyph-name="sterling" unicode="&#xa3;" horiz-adv-x="578" d="M299 773 C274 771 250 767 229 760 C168 740 122 700 95 649 C76 613 62 570 65 516 C67 482 77 446 88 417 C92 407 97 391 94 384 C85 363 39 383 21 368 C9 357 10 322 21 313 C32 304 58 307 77 307 C96 307 120 311 137 304 C162 293 178 207 156 176 C147 163 129 163 112 156 C83 144 55 113 41 91 C32 78 12 46 18 27 C22 15 42 13 59 10 C79 7 94 1 111 5 C120 7 123 13 132 23 C145 38 162 49 189 49 C265 50 340 -14 428 -7 C500 -1 536 47 557 103 C560 112 568 127 563 140 C558 153 542 154 524 158 C508 161 490 169 475 165 C464 162 460 150 452 139 C446 130 437 120 426 116 C400 106 369 120 349 128 C331 135 294 143 286 161 C282 170 283 185 284 195 C285 205 285 217 286 231 C287 257 280 289 291 300 C310 319 368 295 387 314 C398 325 397 359 386 368 C367 384 285 368 264 378 C248 386 240 411 232 430 C224 451 216 471 213 495 C203 567 234 628 284 645 C348 667 398 613 408 559 C411 543 406 518 417 507 C429 496 472 506 488 508 C509 510 541 508 551 523 C560 537 553 562 550 577 C535 669 491 733 414 760 C382 771 332 775 299 773 L299 773 Z " />
<glyph glyph-name="currency" unicode="&#xa4;" horiz-adv-x="578" d="M289 550 C225 550 179 531 148 506 L86 563 L12 489 L72 434 C50 401 34 357 34 300 C34 243 50 199 72 166 L12 111 L86 37 L148 94 C179 69 225 50 289 50 C353 50 399 69 430 94 L492 37 L566 111 L506 166 C528 199 544 243 544 300 C544 357 528 401 506 434 L566 489 L492 563 L430 506 C399 531 353 550 289 550 L289 550 Z M289 146 C199 146 130 214 130 300 C130 391 197 454 289 454 C381 454 448 391 448 300 C448 214 378 146 289 146 L289 146 Z " />
<glyph glyph-name="yen" unicode="&#xa5;" horiz-adv-x="578" d="M11 753 C-21 749 -6 725 6 704 C15 687 20 681 26 670 C59 612 90 556 124 498 C131 487 142 471 138 459 C134 447 103 449 83 449 C60 449 34 451 25 442 C14 431 16 397 26 388 C39 377 77 382 104 382 C130 382 166 387 185 379 C199 373 223 344 210 321 C201 305 158 310 121 310 C94 310 40 316 26 304 C16 295 14 261 25 250 C37 238 86 243 115 243 C149 243 190 249 206 237 C216 229 214 205 214 182 L214 122 C214 92 207 26 220 8 C229 -4 265 0 289 0 C314 0 344 -4 355 7 C363 15 362 39 362 60 L362 180 C362 201 361 225 368 235 C378 248 429 243 460 243 L508 243 C521 243 543 243 550 249 C560 258 563 291 551 303 C537 317 483 310 458 310 C423 310 377 304 367 320 C354 341 374 374 392 380 C414 387 447 382 474 382 C499 382 539 377 551 389 C563 401 560 434 550 443 C540 451 513 449 492 449 C473 449 441 447 438 460 C435 473 447 489 453 499 C494 570 531 636 571 705 C577 715 588 732 585 743 C579 761 532 754 512 754 C482 754 447 757 431 750 C414 742 404 711 394 692 L311 536 C306 528 297 511 287 512 C271 513 258 552 249 568 C225 614 207 647 183 692 C172 712 161 742 146 750 C132 757 103 754 81 754 C55 754 29 755 11 753 L11 753 Z " />
<glyph glyph-name="section" unicode="&#xa7;" horiz-adv-x="577" d="M265 859 C245 858 226 855 210 850 C121 822 54 729 90 612 C94 598 106 579 105 564 C104 554 93 540 86 531 C62 499 45 468 40 418 C33 346 62 301 101 270 C138 240 192 215 234 192 C275 170 338 145 358 104 C388 43 336 -29 268 -15 C229 -7 205 24 195 57 C191 71 191 84 181 92 C169 101 140 99 117 99 C96 99 68 105 56 91 C39 72 61 13 66 0 C96 -78 172 -128 268 -132 C339 -135 397 -117 439 -80 C478 -46 507 5 507 75 C507 112 498 143 486 168 C482 177 475 186 476 197 C477 209 488 220 496 232 C520 266 537 303 537 359 C537 445 485 483 425 518 C401 532 368 551 339 567 C304 587 255 609 233 641 C210 675 221 733 257 750 C289 765 321 748 337 729 C348 715 350 695 366 688 C378 682 402 684 424 684 C448 684 466 682 474 693 C481 702 477 720 473 734 C448 816 367 866 265 859 L265 859 Z M177 470 C182 479 189 491 201 495 C222 499 239 482 257 471 L300 445 C332 425 361 412 384 391 C407 370 418 334 401 295 C395 282 387 268 374 266 C358 264 336 281 321 290 C302 301 288 311 274 319 C242 339 202 357 183 380 C163 403 162 442 177 470 L177 470 Z " />
<glyph glyph-name="dieresis" unicode="&#xa8;" horiz-adv-x="400" d="M83 762 C47 757 19 730 16 693 C8 611 104 579 152 627 C173 649 184 688 166 722 C158 737 152 742 141 750 C128 759 106 765 83 762 L83 762 Z M294 762 C258 757 230 730 227 693 C219 611 315 579 363 627 C384 649 395 688 377 722 C369 737 363 742 352 750 C339 759 317 765 294 762 L294 762 Z " />
<glyph glyph-name="copyright" unicode="&#xa9;" horiz-adv-x="800" d="M375 773 C347 771 315 767 289 759 C211 736 153 695 107 644 C48 579 -2 478 7 351 C15 229 64 146 134 83 C200 23 298 -28 426 -19 C547 -11 629 40 693 109 C753 175 802 273 794 401 C786 521 734 607 668 670 C603 731 502 781 375 773 L375 773 Z M172 586 C219 640 284 680 380 686 C481 693 556 653 609 606 C662 558 700 489 707 396 C714 296 675 221 628 168 C579 113 514 74 420 68 C323 62 244 98 192 147 C138 198 101 261 94 357 C87 457 126 533 172 586 L172 586 Z M385 621 C337 617 298 600 269 577 C214 534 168 456 178 354 C182 311 195 273 219 237 C258 177 327 127 434 140 C501 148 548 186 577 234 C583 245 604 274 594 293 C587 305 542 307 523 299 C507 292 501 271 490 259 C473 242 448 230 420 226 C384 221 358 230 336 244 C296 269 264 314 264 380 C264 423 281 462 302 487 C322 512 357 535 400 535 C438 535 467 523 487 504 C501 491 505 469 523 462 C539 455 589 455 595 470 C603 490 580 522 572 535 C536 590 469 627 385 621 L385 621 Z " />
<glyph glyph-name="ordfeminine" unicode="&#xaa;" horiz-adv-x="339" d="M144 773 C96 770 65 748 44 723 C22 696 5 655 7 611 C10 565 25 531 50 505 C81 473 135 448 193 466 C206 470 217 481 232 481 C241 481 250 473 262 471 C282 468 314 466 325 477 C336 488 332 519 332 543 L332 690 C332 713 337 746 325 757 C317 766 281 767 260 763 C248 761 242 754 230 754 C222 754 214 759 207 762 C189 770 168 775 144 773 L144 773 Z M101 626 C105 662 130 692 166 697 C215 703 249 664 250 619 C251 580 227 552 205 542 C147 514 96 572 101 626 L101 626 Z " />
<glyph glyph-name="guillemotleft" unicode="&#xab;" horiz-adv-x="514" d="M177 553 C166 550 158 536 152 527 C112 468 76 410 39 352 C32 342 23 331 24 319 C24 308 32 296 39 286 C73 235 102 193 136 141 C145 127 161 91 181 89 C197 88 210 102 223 110 C235 118 253 127 255 141 C256 156 239 176 231 188 C209 220 193 242 172 273 C162 287 147 301 147 320 C146 338 161 354 171 368 C192 400 209 424 230 455 C237 467 256 487 254 504 C252 517 236 525 224 533 C210 542 193 558 177 553 L177 553 Z M377 553 C366 550 358 536 352 527 C312 468 276 410 239 352 C232 342 223 331 224 319 C224 308 232 296 239 286 C273 235 302 193 336 141 C345 127 361 91 381 89 C397 88 410 102 423 110 C435 118 453 127 455 141 C456 156 439 176 431 188 C409 220 393 242 372 273 C362 287 347 301 347 320 C346 338 361 354 371 368 C392 400 409 424 430 455 C437 467 456 487 454 504 C452 517 436 525 424 533 C410 542 393 558 377 553 L377 553 Z " />
<glyph glyph-name="registered" unicode="&#xae;" horiz-adv-x="800" d="M374 773 C345 771 314 767 288 759 C210 737 151 695 106 644 C46 578 -3 480 6 351 C14 228 63 146 133 83 C199 23 296 -27 424 -19 C545 -11 629 39 691 109 C752 178 799 269 792 401 C785 521 733 609 666 670 C599 731 503 781 374 773 L374 773 Z M171 586 C218 639 283 680 379 686 C479 692 556 654 608 606 C659 559 701 488 706 396 C711 293 675 221 627 167 C580 114 510 72 419 67 C319 61 244 100 191 148 C138 196 97 263 92 357 C86 458 124 533 171 586 L171 586 Z M258 585 C251 584 243 583 238 577 C227 563 233 508 233 480 L233 276 C233 250 227 192 240 180 C251 169 302 169 313 180 C324 191 320 228 320 256 C320 283 316 320 328 331 C337 339 369 340 385 334 C398 329 405 311 414 297 C432 266 446 243 464 213 C471 201 478 182 494 176 C509 170 563 168 568 184 C571 196 560 209 553 221 C536 248 527 264 512 289 C507 297 493 313 496 328 C499 342 536 349 546 355 C598 387 610 484 576 537 C548 581 485 586 412 586 C361 586 312 590 259 586 C258 586 258 585 258 585 L258 585 Z M325 502 C330 508 337 509 344 510 C362 513 395 512 420 511 C462 509 504 506 508 468 C510 442 493 421 470 415 C451 410 424 412 396 412 C371 412 338 408 327 419 C318 428 314 488 325 502 L325 502 Z " />
<glyph glyph-name="macron" unicode="&#xaf;" horiz-adv-x="400" d="M34 644 C26 643 19 642 14 636 C3 622 6 573 16 564 C28 551 77 557 104 557 L296 557 C324 557 372 552 385 564 C396 575 396 627 385 638 C379 644 366 645 348 645 L214 645 C146 645 92 649 35 645 C34 645 34 644 34 644 L34 644 Z " />
<glyph glyph-name="degree" unicode="&#xb0;" horiz-adv-x="400" d="M187 780 C137 776 98 757 74 730 C50 704 32 662 37 609 C44 539 83 493 143 475 C217 453 288 477 326 517 C351 544 370 585 366 637 C358 730 290 787 187 780 L187 780 Z M139 668 C149 685 165 701 192 704 C300 718 300 534 195 543 C155 546 124 585 128 632 C129 652 136 663 139 668 L139 668 Z " />
<glyph glyph-name="acute" unicode="&#xb4;" horiz-adv-x="380" d="M203 728 C187 726 176 704 168 693 C148 666 133 644 112 615 C104 604 87 586 88 571 C89 558 103 553 114 546 C124 540 137 529 149 530 C163 531 179 551 189 561 L260 632 C270 642 292 657 291 672 C290 688 262 698 252 704 C236 714 220 730 203 728 L203 728 Z " />
<glyph glyph-name="paragraph" unicode="&#xb6;" horiz-adv-x="577" d="M558 754 L236 754 C104 754 12 618 21 497 C31 362 114 283 227 283 L227 -153 L331 -153 L331 660 L393 660 L393 -153 L497 -153 L497 660 L558 660 L558 754 Z " />
<glyph glyph-name="periodcentered" unicode="&#xb7;" horiz-adv-x="289" d="M145 345 C96 345 56 306 56 257 C56 208 96 167 145 167 C194 167 234 208 234 257 C234 306 194 345 145 345 L145 345 Z " />
<glyph glyph-name="cedilla" unicode="&#xb8;" horiz-adv-x="380" d="M196 -26 C181 -32 174 -47 165 -61 C150 -84 137 -102 122 -125 C116 -134 104 -151 105 -162 C106 -174 120 -179 131 -185 C142 -191 154 -200 168 -198 C181 -196 190 -180 199 -170 C218 -147 235 -128 254 -105 C262 -96 278 -82 276 -67 C274 -56 254 -47 242 -41 C227 -33 209 -23 196 -26 L196 -26 Z " />
<glyph glyph-name="ordmasculine" unicode="&#xba;" horiz-adv-x="339" d="M154 773 C104 769 64 750 40 723 C16 697 -4 656 1 602 C8 532 50 486 110 468 C184 446 258 470 296 510 C321 537 340 578 336 630 C328 723 257 781 154 773 L154 773 Z M106 661 C116 678 133 694 159 697 C267 711 267 527 162 536 C122 539 91 578 95 625 C96 645 103 656 106 661 L106 661 Z " />
<glyph glyph-name="guillemotright" unicode="&#xbb;" horiz-adv-x="514" d="M125 553 C112 550 101 541 88 532 C75 524 61 516 60 503 C58 487 77 465 84 455 C104 425 120 400 142 368 C152 352 167 337 167 320 C167 303 150 286 142 273 C120 241 103 218 83 188 C73 173 56 157 59 140 C60 127 79 117 91 109 C103 101 117 87 134 89 C144 90 152 103 159 112 C200 172 236 226 275 287 C280 296 290 310 290 321 C289 332 282 343 275 354 C234 415 198 470 159 530 C149 544 142 557 125 553 L125 553 Z M325 553 C312 550 301 541 288 532 C275 524 261 516 260 503 C258 487 277 465 284 455 C304 425 320 400 342 368 C352 352 367 337 367 320 C367 303 350 286 342 273 C320 241 303 218 283 188 C273 173 256 157 259 140 C260 127 279 117 291 109 C303 101 317 87 334 89 C344 90 352 103 359 112 C400 172 436 226 475 287 C480 296 490 310 490 321 C489 332 482 343 475 354 C434 415 398 470 359 530 C349 544 342 557 325 553 L325 553 Z " />
<glyph glyph-name="questiondown" unicode="&#xbf;" horiz-adv-x="487" d="M254 512 C238 510 228 506 220 501 C197 487 174 460 179 415 C183 376 215 341 256 337 C315 331 353 375 356 421 C357 451 342 477 331 488 C313 506 287 516 254 512 L254 512 Z M223 252 C180 247 204 192 188 165 C179 150 156 147 139 138 C89 112 53 65 38 8 C27 -35 29 -84 43 -124 C68 -197 128 -251 212 -262 C260 -268 306 -259 342 -242 C389 -219 432 -175 449 -118 C454 -101 463 -67 451 -55 C443 -47 415 -48 387 -48 C363 -48 334 -43 320 -53 C306 -63 305 -93 302 -101 C294 -118 279 -132 263 -137 C213 -154 181 -106 177 -67 C170 2 218 45 276 55 C297 58 322 52 333 63 C347 76 340 130 340 154 C340 179 344 234 333 246 C324 255 301 253 282 253 C261 253 238 254 223 252 L223 252 Z " />
<glyph glyph-name="Agrave" unicode="&#xc0;" horiz-adv-x="687" d="M286 995 C269 994 253 980 238 971 C225 963 201 952 201 938 C201 923 223 907 232 898 C258 872 278 852 304 828 C315 818 328 798 344 797 C356 797 370 807 379 813 C390 820 403 827 404 839 C405 854 386 872 379 882 C357 912 343 935 323 962 C314 975 302 996 286 995 L286 995 Z M311 773 C284 769 281 750 272 727 C188 505 103 283 19 60 C13 45 1 22 6 9 C12 -6 46 -1 70 -1 C98 -1 126 -4 142 2 C156 7 162 23 168 39 C180 68 189 93 200 121 C205 134 210 150 223 155 C238 161 263 158 282 158 L407 158 C428 158 454 160 467 155 C479 150 483 133 488 121 L503 80 C511 59 523 13 538 4 C551 -4 585 -1 613 -1 C639 -1 672 -7 680 9 C686 22 675 44 669 59 C626 174 589 279 546 392 C500 515 467 606 423 725 C416 743 411 761 400 768 C385 778 330 775 311 773 L311 773 Z M314 468 C318 481 324 521 338 524 C353 528 364 483 368 471 C383 429 395 392 409 350 C414 334 432 302 423 287 C415 273 364 279 342 279 C317 279 272 273 265 290 C259 305 273 335 278 352 C290 393 302 429 314 468 L314 468 Z " />
<glyph glyph-name="Aacute" unicode="&#xc1;" horiz-adv-x="687" d="M397 995 C381 993 370 971 362 960 C342 933 327 911 306 882 C298 871 281 853 282 838 C283 825 297 820 308 813 C318 807 331 796 343 797 C357 798 373 818 383 828 L454 899 C464 909 486 924 485 939 C484 955 456 965 446 971 C430 981 414 997 397 995 L397 995 Z M311 773 C284 769 281 750 272 727 C188 505 103 283 19 60 C13 45 1 22 6 9 C12 -6 46 -1 70 -1 C98 -1 126 -4 142 2 C156 7 162 23 168 39 C180 68 189 93 200 121 C205 134 210 150 223 155 C238 161 263 158 282 158 L407 158 C428 158 454 160 467 155 C479 150 483 133 488 121 L503 80 C511 59 523 13 538 4 C551 -4 585 -1 613 -1 C639 -1 672 -7 680 9 C686 22 675 44 669 59 C626 174 589 279 546 392 C500 515 467 606 423 725 C416 743 411 761 400 768 C385 778 330 775 311 773 L311 773 Z M314 468 C318 481 324 521 338 524 C353 528 364 483 368 471 C383 429 395 392 409 350 C414 334 432 302 423 287 C415 273 364 279 342 279 C317 279 272 273 265 290 C259 305 273 335 278 352 C290 393 302 429 314 468 L314 468 Z " />
<glyph glyph-name="Acircumflex" unicode="&#xc2;" horiz-adv-x="687" d="M338 994 C321 990 306 969 295 959 C268 935 243 914 216 889 C203 878 182 862 182 848 C181 832 195 823 203 815 C210 807 220 791 234 791 C243 791 255 802 264 810 C282 827 294 840 314 858 C322 866 332 877 344 877 C361 877 385 846 398 834 C413 819 436 791 453 791 C467 791 474 806 483 815 C491 825 505 833 505 848 C504 865 483 877 469 890 L387 964 C375 974 357 998 338 994 L338 994 Z M311 773 C284 769 281 750 272 727 C188 505 103 283 19 60 C13 45 1 22 6 9 C12 -6 46 -1 70 -1 C98 -1 126 -4 142 2 C156 7 162 23 168 39 C180 68 189 93 200 121 C205 134 210 150 223 155 C238 161 263 158 282 158 L407 158 C428 158 454 160 467 155 C479 150 483 133 488 121 L503 80 C511 59 523 13 538 4 C551 -4 585 -1 613 -1 C639 -1 672 -7 680 9 C686 22 675 44 669 59 C626 174 589 279 546 392 C500 515 467 606 423 725 C416 743 411 761 400 768 C385 778 330 775 311 773 L311 773 Z M314 468 C318 481 324 521 338 524 C353 528 364 483 368 471 C383 429 395 392 409 350 C414 334 432 302 423 287 C415 273 364 279 342 279 C317 279 272 273 265 290 C259 305 273 335 278 352 C290 393 302 429 314 468 L314 468 Z " />
<glyph glyph-name="Atilde" unicode="&#xc3;" horiz-adv-x="687" d="M249 960 C210 955 185 923 171 892 C164 877 150 844 160 830 C169 817 216 820 228 825 C247 833 251 860 278 862 C297 863 317 854 335 846 C351 839 368 829 386 824 C451 806 495 851 514 892 C519 903 535 935 528 951 C521 965 470 964 457 958 C437 950 436 927 414 922 C391 916 362 933 344 940 C318 950 284 965 249 960 L249 960 Z M311 773 C284 769 281 750 272 727 C188 505 103 283 19 60 C13 45 1 22 6 9 C12 -6 46 -1 70 -1 C98 -1 126 -4 142 2 C156 7 162 23 168 39 C180 68 189 93 200 121 C205 134 210 150 223 155 C238 161 263 158 282 158 L407 158 C428 158 454 160 467 155 C479 150 483 133 488 121 L503 80 C511 59 523 13 538 4 C551 -4 585 -1 613 -1 C639 -1 672 -7 680 9 C686 22 675 44 669 59 C626 174 589 279 546 392 C500 515 467 606 423 725 C416 743 411 761 400 768 C385 778 330 775 311 773 L311 773 Z M314 468 C318 481 324 521 338 524 C353 528 364 483 368 471 C383 429 395 392 409 350 C414 334 432 302 423 287 C415 273 364 279 342 279 C317 279 272 273 265 290 C259 305 273 335 278 352 C290 393 302 429 314 468 L314 468 Z " />
<glyph glyph-name="Adieresis" unicode="&#xc4;" horiz-adv-x="687" d="M225 979 C189 974 161 947 158 910 C150 828 246 796 294 844 C315 866 326 905 308 939 C300 954 294 959 283 967 C270 976 248 982 225 979 L225 979 Z M436 979 C400 974 372 947 369 910 C361 828 457 796 505 844 C526 866 537 905 519 939 C511 954 505 959 494 967 C481 976 459 982 436 979 L436 979 Z M311 773 C284 769 281 750 272 727 C188 505 103 283 19 60 C13 45 1 22 6 9 C12 -6 46 -1 70 -1 C98 -1 126 -4 142 2 C156 7 162 23 168 39 C180 68 189 93 200 121 C205 134 210 150 223 155 C238 161 263 158 282 158 L407 158 C428 158 454 160 467 155 C479 150 483 133 488 121 L503 80 C511 59 523 13 538 4 C551 -4 585 -1 613 -1 C639 -1 672 -7 680 9 C686 22 675 44 669 59 C626 174 589 279 546 392 C500 515 467 606 423 725 C416 743 411 761 400 768 C385 778 330 775 311 773 L311 773 Z M314 468 C318 481 324 521 338 524 C353 528 364 483 368 471 C383 429 395 392 409 350 C414 334 432 302 423 287 C415 273 364 279 342 279 C317 279 272 273 265 290 C259 305 273 335 278 352 C290 393 302 429 314 468 L314 468 Z " />
<glyph glyph-name="Aring" unicode="&#xc5;" horiz-adv-x="687" d="M669 59 C626 174 589 279 546 392 C500 515 467 606 423 725 L414 748 C432 766 443 791 443 819 C443 874 398 919 343 919 C288 919 243 874 243 819 C243 788 257 761 278 742 C276 738 274 732 272 727 C188 505 103 283 19 60 C13 45 1 22 6 9 C12 -6 46 -1 70 -1 C98 -1 126 -4 142 2 C156 7 162 23 168 39 C180 68 189 93 200 121 C205 134 210 150 223 155 C238 161 263 158 282 158 L407 158 C428 158 454 160 467 155 C479 150 483 133 488 121 L503 80 C511 59 523 13 538 4 C551 -4 585 -1 613 -1 C639 -1 672 -7 680 9 C686 22 675 44 669 59 L669 59 Z M343 860 C366 860 384 841 384 819 C384 796 366 777 343 777 C320 777 302 796 302 819 C302 841 320 860 343 860 L343 860 Z M423 287 C415 273 364 279 342 279 C317 279 272 273 265 290 C259 305 273 335 278 352 C290 393 302 429 314 468 C318 481 324 521 338 524 C353 528 364 483 368 471 C383 429 395 392 409 350 C414 334 432 302 423 287 L423 287 Z " />
<glyph glyph-name="AE" unicode="&#xc6;" horiz-adv-x="921" d="M306 753 C278 750 274 729 265 706 C180 490 98 277 14 59 C8 45 -4 21 3 9 C10 -5 47 0 71 0 C95 0 130 -3 143 5 C160 15 169 57 178 80 C185 100 196 145 214 154 C225 160 255 158 276 158 L402 158 C423 158 449 160 461 154 C471 149 476 134 482 120 C487 106 492 92 497 80 C505 58 513 16 533 5 C551 -5 598 0 628 0 L828 0 C851 0 911 -6 920 9 C928 24 909 59 905 71 C897 92 894 116 877 124 C864 130 842 128 821 128 L760 128 C731 128 664 122 643 132 C632 137 625 156 619 173 C603 217 590 249 575 293 C573 298 567 311 571 320 C576 332 600 330 622 330 L744 330 C763 330 790 328 796 339 C800 348 795 362 792 371 C788 382 784 391 781 401 C773 421 769 447 754 455 C742 461 720 459 699 459 L580 459 C559 459 536 456 523 462 C512 467 507 481 502 494 L473 572 C469 582 458 601 464 615 C469 627 498 625 516 625 L578 625 C603 625 684 618 693 634 C698 644 692 657 689 666 C685 676 681 686 678 696 C671 716 666 742 651 750 C635 758 593 754 568 754 L481 754 C421 754 347 758 306 753 L306 753 Z M308 455 C312 469 319 503 331 507 C347 512 358 471 362 460 L402 348 C407 335 424 305 417 289 C410 273 360 279 338 279 C314 279 266 274 260 289 C254 303 268 335 272 347 C284 384 297 421 308 455 L308 455 Z " />
<glyph glyph-name="Ccedilla" unicode="&#xc7;" horiz-adv-x="601" d="M369 773 C336 771 305 766 276 756 C192 728 136 679 92 616 C35 535 -3 402 30 271 C58 160 125 71 215 23 C262 -2 317 -21 387 -21 C419 -21 453 -14 480 -6 C503 1 542 10 553 30 C561 45 558 77 558 107 C558 126 563 176 549 180 C539 183 528 172 520 166 C494 147 465 132 431 125 C379 114 324 127 288 148 C253 169 226 200 205 238 C183 277 168 320 170 377 C173 488 220 565 289 605 C325 626 375 639 430 629 C465 622 494 608 520 589 C527 584 539 571 549 574 C563 578 558 629 558 646 C558 671 562 707 554 724 C544 746 502 756 476 763 C441 772 402 775 369 773 L369 773 Z M306 -26 C291 -32 284 -47 275 -61 C260 -84 247 -102 232 -125 C226 -134 214 -151 215 -162 C216 -174 230 -179 241 -185 C252 -191 264 -200 278 -198 C291 -196 300 -180 309 -170 C328 -147 345 -128 364 -105 C372 -96 388 -82 386 -67 C384 -56 364 -47 352 -41 C337 -33 319 -23 306 -26 L306 -26 Z " />
<glyph glyph-name="Egrave" unicode="&#xc8;" horiz-adv-x="488" d="M187 972 C170 971 154 957 139 948 C126 940 102 929 102 915 C102 900 124 884 133 875 C159 849 179 829 205 805 C216 795 229 775 245 774 C257 774 271 784 280 790 C291 797 304 804 305 816 C306 831 287 849 280 859 C258 889 244 912 224 939 C215 952 203 973 187 972 L187 972 Z M79 753 L77 753 C44 752 54 692 54 658 L54 94 C54 63 49 18 61 6 C73 -6 128 -1 152 -1 L346 -1 C373 -1 421 -7 437 5 C448 13 445 41 445 64 C445 85 449 110 438 121 C430 129 406 128 385 128 L263 128 C242 128 219 126 209 135 C196 148 202 205 202 231 C202 261 196 311 209 324 C218 333 241 331 263 331 L378 331 C398 331 421 330 429 338 C441 350 441 442 429 453 C420 462 401 460 378 460 L261 460 C244 460 218 458 209 467 C197 479 202 521 202 544 C202 571 197 606 209 618 C218 627 239 625 262 625 L382 625 C403 625 427 623 437 631 C448 639 445 670 445 689 C445 709 448 736 439 746 C432 755 415 754 398 754 L171 754 C139 754 101 756 79 753 L79 753 Z " />
<glyph glyph-name="Eacute" unicode="&#xc9;" horiz-adv-x="488" d="M298 972 C282 970 271 948 263 937 C243 910 228 888 207 859 C199 848 182 830 183 815 C184 802 198 797 209 790 C219 784 232 773 244 774 C258 775 274 795 284 805 L355 876 C365 886 387 901 386 916 C385 932 357 942 347 948 C331 958 315 974 298 972 L298 972 Z M79 753 L77 753 C44 752 54 692 54 658 L54 94 C54 63 49 18 61 6 C73 -6 128 -1 152 -1 L346 -1 C373 -1 421 -7 437 5 C448 13 445 41 445 64 C445 85 449 110 438 121 C430 129 406 128 385 128 L263 128 C242 128 219 126 209 135 C196 148 202 205 202 231 C202 261 196 311 209 324 C218 333 241 331 263 331 L378 331 C398 331 421 330 429 338 C441 350 441 442 429 453 C420 462 401 460 378 460 L261 460 C244 460 218 458 209 467 C197 479 202 521 202 544 C202 571 197 606 209 618 C218 627 239 625 262 625 L382 625 C403 625 427 623 437 631 C448 639 445 670 445 689 C445 709 448 736 439 746 C432 755 415 754 398 754 L171 754 C139 754 101 756 79 753 L79 753 Z " />
<glyph glyph-name="Ecircumflex" unicode="&#xca;" horiz-adv-x="488" d="M239 971 C222 967 207 946 196 936 C169 912 144 891 117 866 C104 855 83 839 83 825 C82 809 96 800 104 792 C111 784 121 768 135 768 C144 768 156 779 165 787 C183 804 195 817 215 835 C223 843 233 854 245 854 C262 854 286 823 299 811 C314 796 337 768 354 768 C368 768 375 783 384 792 C392 802 406 810 406 825 C405 842 384 854 370 867 L288 941 C276 951 258 975 239 971 L239 971 Z M79 753 L77 753 C44 752 54 692 54 658 L54 94 C54 63 49 18 61 6 C73 -6 128 -1 152 -1 L346 -1 C373 -1 421 -7 437 5 C448 13 445 41 445 64 C445 85 449 110 438 121 C430 129 406 128 385 128 L263 128 C242 128 219 126 209 135 C196 148 202 205 202 231 C202 261 196 311 209 324 C218 333 241 331 263 331 L378 331 C398 331 421 330 429 338 C441 350 441 442 429 453 C420 462 401 460 378 460 L261 460 C244 460 218 458 209 467 C197 479 202 521 202 544 C202 571 197 606 209 618 C218 627 239 625 262 625 L382 625 C403 625 427 623 437 631 C448 639 445 670 445 689 C445 709 448 736 439 746 C432 755 415 754 398 754 L171 754 C139 754 101 756 79 753 L79 753 Z " />
<glyph glyph-name="Edieresis" unicode="&#xcb;" horiz-adv-x="488" d="M126 956 C90 951 62 924 59 887 C51 805 147 773 195 821 C216 843 227 882 209 916 C201 931 195 936 184 944 C171 953 149 959 126 956 L126 956 Z M337 956 C301 951 273 924 270 887 C262 805 358 773 406 821 C427 843 438 882 420 916 C412 931 406 936 395 944 C382 953 360 959 337 956 L337 956 Z M79 753 L77 753 C44 752 54 692 54 658 L54 94 C54 63 49 18 61 6 C73 -6 128 -1 152 -1 L346 -1 C373 -1 421 -7 437 5 C448 13 445 41 445 64 C445 85 449 110 438 121 C430 129 406 128 385 128 L263 128 C242 128 219 126 209 135 C196 148 202 205 202 231 C202 261 196 311 209 324 C218 333 241 331 263 331 L378 331 C398 331 421 330 429 338 C441 350 441 442 429 453 C420 462 401 460 378 460 L261 460 C244 460 218 458 209 467 C197 479 202 521 202 544 C202 571 197 606 209 618 C218 627 239 625 262 625 L382 625 C403 625 427 623 437 631 C448 639 445 670 445 689 C445 709 448 736 439 746 C432 755 415 754 398 754 L171 754 C139 754 101 756 79 753 L79 753 Z " />
<glyph glyph-name="Igrave" unicode="&#xcc;" horiz-adv-x="254" d="M70 972 C53 971 37 957 22 948 C9 940 -15 929 -15 915 C-15 900 7 884 16 875 C42 849 62 829 88 805 C99 795 112 775 128 774 C140 774 154 784 163 790 C174 797 187 804 188 816 C189 831 170 849 163 859 C141 889 127 912 107 939 C98 952 86 973 70 972 L70 972 Z M79 753 C53 750 54 733 54 704 C54 659 54 600 54 563 L54 93 C54 65 50 17 61 6 C71 -4 103 -1 127 -1 C152 -1 182 -6 194 5 C207 16 202 67 202 95 L202 659 C202 688 206 736 195 747 C182 760 98 755 79 753 L79 753 Z " />
<glyph glyph-name="Iacute" unicode="&#xcd;" horiz-adv-x="254" d="M181 972 C165 970 154 948 146 937 C126 910 111 888 90 859 C82 848 65 830 66 815 C67 802 81 797 92 790 C102 784 115 773 127 774 C141 775 157 795 167 805 L238 876 C248 886 270 901 269 916 C268 932 240 942 230 948 C214 958 198 974 181 972 L181 972 Z M79 753 C53 750 54 733 54 704 C54 659 54 600 54 563 L54 93 C54 65 50 17 61 6 C71 -4 103 -1 127 -1 C152 -1 182 -6 194 5 C207 16 202 67 202 95 L202 659 C202 688 206 736 195 747 C182 760 98 755 79 753 L79 753 Z " />
<glyph glyph-name="Icircumflex" unicode="&#xce;" horiz-adv-x="254" d="M122 971 C105 967 90 946 79 936 C52 912 27 891 0 866 C-13 855 -34 839 -34 825 C-35 809 -21 800 -13 792 C-6 784 4 768 18 768 C27 768 39 779 48 787 C66 804 78 817 98 835 C106 843 116 854 128 854 C145 854 169 823 182 811 C197 796 220 768 237 768 C251 768 258 783 267 792 C275 802 289 810 289 825 C288 842 267 854 253 867 L171 941 C159 951 141 975 122 971 L122 971 Z M79 753 C53 750 54 733 54 704 C54 659 54 600 54 563 L54 93 C54 65 50 17 61 6 C71 -4 103 -1 127 -1 C152 -1 182 -6 194 5 C207 16 202 67 202 95 L202 659 C202 688 206 736 195 747 C182 760 98 755 79 753 L79 753 Z " />
<glyph glyph-name="Idieresis" unicode="&#xcf;" horiz-adv-x="254" d="M9 956 C-27 951 -55 924 -58 887 C-66 805 30 773 78 821 C99 843 110 882 92 916 C84 931 78 936 67 944 C54 953 32 959 9 956 L9 956 Z M220 956 C184 951 156 924 153 887 C145 805 241 773 289 821 C310 843 321 882 303 916 C295 931 289 936 278 944 C265 953 243 959 220 956 L220 956 Z M79 753 C53 750 54 733 54 704 C54 659 54 600 54 563 L54 93 C54 65 50 17 61 6 C71 -4 103 -1 127 -1 C152 -1 182 -6 194 5 C207 16 202 67 202 95 L202 659 C202 688 206 736 195 747 C182 760 98 755 79 753 L79 753 Z " />
<glyph glyph-name="Eth" unicode="&#xd0;" horiz-adv-x="530" d="M437 636 C385 710 305 758 168 751 C145 750 73 758 60 745 C48 733 53 688 53 658 L53 435 C39 436 22 435 7 433 C-23 429 -18 407 -18 375 C-18 354 -19 334 -11 326 C-3 318 23 319 44 319 C47 319 50 319 53 319 L53 95 C53 67 48 19 59 6 C67 -3 84 -2 103 -2 C151 -2 202 -3 243 2 C413 24 491 142 502 320 C510 450 489 562 437 636 L437 636 Z M278 156 C267 148 230 127 211 139 C196 150 203 220 203 252 C203 279 203 298 203 319 L210 319 C232 319 257 317 266 326 C278 338 277 416 266 427 C258 435 239 434 214 434 L202 434 C202 483 201 530 203 584 C203 601 206 612 222 613 C223 614 226 614 229 613 C273 607 301 574 319 539 C374 433 364 220 278 156 L278 156 Z " />
<glyph glyph-name="Ntilde" unicode="&#xd1;" horiz-adv-x="759" d="M286 937 C247 932 222 900 208 869 C201 854 187 821 197 807 C206 794 253 797 265 802 C284 810 288 837 315 839 C334 840 354 831 372 823 C388 816 405 806 423 801 C488 783 532 828 551 869 C556 880 572 912 565 928 C558 942 507 941 494 935 C474 927 473 904 451 899 C428 893 399 910 381 917 C355 927 321 942 286 937 L286 937 Z M80 773 C67 771 64 769 60 763 C50 748 55 703 55 672 L55 94 C55 64 51 16 63 5 C75 -5 108 -1 129 -1 C149 -1 184 -5 195 5 C205 14 203 39 203 62 L203 433 C203 452 201 483 212 486 C222 489 235 471 242 461 C350 321 450 185 555 46 C569 27 586 -5 608 -13 C629 -20 691 -20 702 -8 C712 4 708 53 708 81 L708 654 C708 681 714 729 703 745 C694 758 658 754 634 754 C612 754 579 758 567 747 C558 738 560 710 560 690 L560 386 C560 359 562 324 560 295 C557 254 535 279 521 297 C414 436 313 573 209 713 C196 731 174 765 155 771 C138 777 91 774 80 773 L80 773 Z " />
<glyph glyph-name="Ograve" unicode="&#xd2;" horiz-adv-x="782" d="M334 989 C317 988 301 974 286 965 C273 957 249 946 249 932 C249 917 271 901 280 892 C306 866 326 846 352 822 C363 812 376 792 392 791 C404 791 418 801 427 807 C438 814 451 821 452 833 C453 848 434 866 427 876 C405 906 391 929 371 956 C362 969 350 990 334 989 L334 989 Z M367 773 C339 771 308 767 282 760 C207 739 148 697 107 646 C53 579 10 477 18 352 C26 232 65 144 131 80 C194 19 290 -26 414 -20 C531 -15 616 38 673 106 C731 175 769 274 763 399 C757 517 714 610 651 672 C588 734 492 780 367 773 L367 773 Z M286 600 C312 615 343 625 378 627 C450 632 509 600 546 559 C581 520 608 460 611 389 C614 315 591 251 558 207 C525 162 473 128 404 126 C253 121 181 225 171 364 C163 476 216 559 286 600 L286 600 Z " />
<glyph glyph-name="Oacute" unicode="&#xd3;" horiz-adv-x="782" d="M445 989 C429 987 418 965 410 954 C390 927 375 905 354 876 C346 865 329 847 330 832 C331 819 345 814 356 807 C366 801 379 790 391 791 C405 792 421 812 431 822 L502 893 C512 903 534 918 533 933 C532 949 504 959 494 965 C478 975 462 991 445 989 L445 989 Z M367 773 C339 771 308 767 282 760 C207 739 148 697 107 646 C53 579 10 477 18 352 C26 232 65 144 131 80 C194 19 290 -26 414 -20 C531 -15 616 38 673 106 C731 175 769 274 763 399 C757 517 714 610 651 672 C588 734 492 780 367 773 L367 773 Z M286 600 C312 615 343 625 378 627 C450 632 509 600 546 559 C581 520 608 460 611 389 C614 315 591 251 558 207 C525 162 473 128 404 126 C253 121 181 225 171 364 C163 476 216 559 286 600 L286 600 Z " />
<glyph glyph-name="Ocircumflex" unicode="&#xd4;" horiz-adv-x="782" d="M386 988 C369 984 354 963 343 953 C316 929 291 908 264 883 C251 872 230 856 230 842 C229 826 243 817 251 809 C258 801 268 785 282 785 C291 785 303 796 312 804 C330 821 342 834 362 852 C370 860 380 871 392 871 C409 871 433 840 446 828 C461 813 484 785 501 785 C515 785 522 800 531 809 C539 819 553 827 553 842 C552 859 531 871 517 884 L435 958 C423 968 405 992 386 988 L386 988 Z M367 773 C339 771 308 767 282 760 C207 739 148 697 107 646 C53 579 10 477 18 352 C26 232 65 144 131 80 C194 19 290 -26 414 -20 C531 -15 616 38 673 106 C731 175 769 274 763 399 C757 517 714 610 651 672 C588 734 492 780 367 773 L367 773 Z M286 600 C312 615 343 625 378 627 C450 632 509 600 546 559 C581 520 608 460 611 389 C614 315 591 251 558 207 C525 162 473 128 404 126 C253 121 181 225 171 364 C163 476 216 559 286 600 L286 600 Z " />
<glyph glyph-name="Otilde" unicode="&#xd5;" horiz-adv-x="782" d="M297 954 C258 949 233 917 219 886 C212 871 198 838 208 824 C217 811 264 814 276 819 C295 827 299 854 326 856 C345 857 365 848 383 840 C399 833 416 823 434 818 C499 800 543 845 562 886 C567 897 583 929 576 945 C569 959 518 958 505 952 C485 944 484 921 462 916 C439 910 410 927 392 934 C366 944 332 959 297 954 L297 954 Z M367 773 C339 771 308 767 282 760 C207 739 148 697 107 646 C53 579 10 477 18 352 C26 232 65 144 131 80 C194 19 290 -26 414 -20 C531 -15 616 38 673 106 C731 175 769 274 763 399 C757 517 714 610 651 672 C588 734 492 780 367 773 L367 773 Z M286 600 C312 615 343 625 378 627 C450 632 509 600 546 559 C581 520 608 460 611 389 C614 315 591 251 558 207 C525 162 473 128 404 126 C253 121 181 225 171 364 C163 476 216 559 286 600 L286 600 Z " />
<glyph glyph-name="Odieresis" unicode="&#xd6;" horiz-adv-x="782" d="M273 973 C237 968 209 941 206 904 C198 822 294 790 342 838 C363 860 374 899 356 933 C348 948 342 953 331 961 C318 970 296 976 273 973 L273 973 Z M484 973 C448 968 420 941 417 904 C409 822 505 790 553 838 C574 860 585 899 567 933 C559 948 553 953 542 961 C529 970 507 976 484 973 L484 973 Z M367 773 C339 771 308 767 282 760 C207 739 148 697 107 646 C53 579 10 477 18 352 C26 232 65 144 131 80 C194 19 290 -26 414 -20 C531 -15 616 38 673 106 C731 175 769 274 763 399 C757 517 714 610 651 672 C588 734 492 780 367 773 L367 773 Z M286 600 C312 615 343 625 378 627 C450 632 509 600 546 559 C581 520 608 460 611 389 C614 315 591 251 558 207 C525 162 473 128 404 126 C253 121 181 225 171 364 C163 476 216 559 286 600 L286 600 Z " />
<glyph glyph-name="multiply" unicode="&#xd7;" horiz-adv-x="496" d="M424 149 L330 243 C341 255 353 267 364 278 C392 305 427 335 448 363 C467 387 448 399 425 422 C410 437 397 452 386 452 C374 452 357 433 342 418 L249 325 C237 336 226 348 214 359 C187 387 157 422 129 443 C105 462 93 443 70 420 C55 405 40 392 40 381 C40 369 59 352 74 337 C106 305 137 274 168 244 L76 152 C60 136 41 120 41 107 C41 90 97 36 113 36 C124 36 137 50 154 68 C186 100 218 131 249 162 L340 71 C356 55 372 36 385 36 C402 36 456 92 456 108 C456 119 442 132 424 149 L424 149 Z " />
<glyph glyph-name="Oslash" unicode="&#xd8;" horiz-adv-x="782" d="M707 776 C690 773 677 751 665 739 C654 728 639 706 622 706 C612 706 600 714 592 719 C530 757 451 782 348 772 C243 761 172 716 119 657 C64 596 27 520 20 412 C13 309 36 228 71 164 C76 155 83 143 82 132 C80 114 56 96 44 83 C34 73 5 51 6 33 C6 19 24 6 33 -3 C43 -12 57 -29 71 -29 C88 -29 108 0 117 9 C130 23 144 46 163 47 C173 47 183 39 192 34 C253 -4 336 -28 437 -18 C537 -8 612 35 666 96 C718 156 755 233 764 341 C772 441 749 524 715 588 C710 598 702 608 703 619 C704 635 728 655 740 668 L761 690 C767 697 778 704 778 717 C778 732 760 742 749 752 C735 764 724 779 707 776 L707 776 Z M267 586 C298 609 333 624 378 627 C400 629 432 627 457 619 C474 614 507 601 508 584 C509 568 484 549 475 539 C412 471 350 407 286 338 C274 326 262 312 248 298 C237 287 219 262 205 263 C190 264 183 295 179 313 C174 336 172 358 172 381 C171 431 185 472 200 503 C216 536 236 563 267 586 L267 586 Z M534 448 C545 461 559 483 575 487 C595 492 601 466 606 444 C631 330 587 215 516 163 C486 142 445 126 394 126 C370 126 341 130 324 136 C307 141 278 150 277 168 C276 183 298 201 309 213 C323 229 338 242 347 252 C401 311 443 352 496 409 C507 421 521 434 534 448 L534 448 Z " />
<glyph glyph-name="Ugrave" unicode="&#xd9;" horiz-adv-x="660" d="M273 972 C256 971 240 957 225 948 C212 940 188 929 188 915 C188 900 210 884 219 875 C245 849 265 829 291 805 C302 795 315 775 331 774 C343 774 357 784 366 790 C377 797 390 804 391 816 C392 831 373 849 366 859 C344 889 330 912 310 939 C301 952 289 973 273 972 L273 972 Z M75 753 C43 749 50 719 50 685 L50 487 C50 397 44 308 55 229 C76 79 158 -23 332 -21 C496 -19 587 74 607 231 C617 313 611 402 611 490 L611 688 C611 708 613 737 604 747 C592 758 558 754 535 754 C509 754 480 757 470 747 C462 739 463 722 463 706 L463 366 C463 238 458 110 331 109 C265 109 234 144 217 189 C199 236 198 298 198 365 L198 656 C198 680 204 734 191 747 C182 756 157 754 137 754 C114 754 87 755 75 753 L75 753 Z " />
<glyph glyph-name="Uacute" unicode="&#xda;" horiz-adv-x="660" d="M384 972 C368 970 357 948 349 937 C329 910 314 888 293 859 C285 848 268 830 269 815 C270 802 284 797 295 790 C305 784 318 773 330 774 C344 775 360 795 370 805 L441 876 C451 886 473 901 472 916 C471 932 443 942 433 948 C417 958 401 974 384 972 L384 972 Z M75 753 C43 749 50 719 50 685 L50 487 C50 397 44 308 55 229 C76 79 158 -23 332 -21 C496 -19 587 74 607 231 C617 313 611 402 611 490 L611 688 C611 708 613 737 604 747 C592 758 558 754 535 754 C509 754 480 757 470 747 C462 739 463 722 463 706 L463 366 C463 238 458 110 331 109 C265 109 234 144 217 189 C199 236 198 298 198 365 L198 656 C198 680 204 734 191 747 C182 756 157 754 137 754 C114 754 87 755 75 753 L75 753 Z " />
<glyph glyph-name="Ucircumflex" unicode="&#xdb;" horiz-adv-x="660" d="M325 971 C308 967 293 946 282 936 C255 912 230 891 203 866 C190 855 169 839 169 825 C168 809 182 800 190 792 C197 784 207 768 221 768 C230 768 242 779 251 787 C269 804 281 817 301 835 C309 843 319 854 331 854 C348 854 372 823 385 811 C400 796 423 768 440 768 C454 768 461 783 470 792 C478 802 492 810 492 825 C491 842 470 854 456 867 L374 941 C362 951 344 975 325 971 L325 971 Z M75 753 C43 749 50 719 50 685 L50 487 C50 397 44 308 55 229 C76 79 158 -23 332 -21 C496 -19 587 74 607 231 C617 313 611 402 611 490 L611 688 C611 708 613 737 604 747 C592 758 558 754 535 754 C509 754 480 757 470 747 C462 739 463 722 463 706 L463 366 C463 238 458 110 331 109 C265 109 234 144 217 189 C199 236 198 298 198 365 L198 656 C198 680 204 734 191 747 C182 756 157 754 137 754 C114 754 87 755 75 753 L75 753 Z " />
<glyph glyph-name="Udieresis" unicode="&#xdc;" horiz-adv-x="660" d="M212 956 C176 951 148 924 145 887 C137 805 233 773 281 821 C302 843 313 882 295 916 C287 931 281 936 270 944 C257 953 235 959 212 956 L212 956 Z M423 956 C387 951 359 924 356 887 C348 805 444 773 492 821 C513 843 524 882 506 916 C498 931 492 936 481 944 C468 953 446 959 423 956 L423 956 Z M75 753 C43 749 50 719 50 685 L50 487 C50 397 44 308 55 229 C76 79 158 -23 332 -21 C496 -19 587 74 607 231 C617 313 611 402 611 490 L611 688 C611 708 613 737 604 747 C592 758 558 754 535 754 C509 754 480 757 470 747 C462 739 463 722 463 706 L463 366 C463 238 458 110 331 109 C265 109 234 144 217 189 C199 236 198 298 198 365 L198 656 C198 680 204 734 191 747 C182 756 157 754 137 754 C114 754 87 755 75 753 L75 753 Z " />
<glyph glyph-name="Yacute" unicode="&#xdd;" horiz-adv-x="514" d="M311 972 C295 970 284 948 276 937 C256 910 241 888 220 859 C212 848 195 830 196 815 C197 802 211 797 222 790 C232 784 245 773 257 774 C271 775 287 795 297 805 L368 876 C378 886 400 901 399 916 C398 932 370 942 360 948 C344 958 328 974 311 972 L311 972 Z M30 752 L28 752 C-3 746 20 709 28 691 C72 595 115 507 158 413 C165 397 173 380 178 365 C184 344 182 310 182 277 L182 91 C182 70 177 17 190 5 C199 -3 232 0 256 0 C281 0 312 -4 323 5 C335 16 331 64 331 89 L331 274 C331 306 327 338 333 363 C338 379 347 395 354 411 C397 506 437 599 480 692 C485 703 501 730 496 743 C489 759 442 753 424 753 C396 753 363 757 346 749 C330 741 325 715 320 700 C305 659 294 629 280 589 C276 579 267 539 254 540 C242 541 232 576 228 589 C212 630 201 661 186 700 C178 719 172 742 158 749 C144 755 115 753 96 753 C72 753 48 754 30 752 L30 752 Z " />
<glyph glyph-name="agrave" unicode="&#xe0;" horiz-adv-x="528" d="M207 969 C190 968 174 954 159 945 C146 937 122 926 122 912 C122 897 144 881 153 872 C179 846 199 826 225 802 C236 792 249 772 265 771 C277 771 291 781 300 787 C311 794 324 801 325 813 C326 828 307 846 300 856 C278 886 264 909 244 936 C235 949 223 970 207 969 L207 969 Z M203 750 C176 747 177 729 170 701 C122 487 71 268 20 54 C16 37 9 15 16 6 C24 -5 58 -2 81 -2 C104 -2 134 -6 149 3 C161 12 164 40 169 64 C174 83 177 114 192 122 C209 130 233 126 262 126 C283 126 314 129 327 120 C338 111 343 81 347 61 C352 39 354 12 366 3 C380 -6 412 -2 442 -2 C465 -2 501 -7 510 6 C517 15 512 36 507 53 C458 257 410 457 362 659 C355 687 349 736 332 747 C320 755 292 751 271 751 C246 751 218 752 203 750 L203 750 Z M237 439 C241 460 244 487 254 500 C266 498 269 462 272 442 C280 402 289 356 297 318 C300 301 310 265 302 253 C296 243 275 244 258 244 C241 244 222 241 214 253 C206 265 215 298 218 315 C225 358 231 398 237 439 L237 439 Z " />
<glyph glyph-name="aacute" unicode="&#xe1;" horiz-adv-x="528" d="M318 969 C302 967 291 945 283 934 C263 907 248 885 227 856 C219 845 202 827 203 812 C204 799 218 794 229 787 C239 781 252 770 264 771 C278 772 294 792 304 802 L375 873 C385 883 407 898 406 913 C405 929 377 939 367 945 C351 955 335 971 318 969 L318 969 Z M203 750 C176 747 177 729 170 701 C122 487 71 268 20 54 C16 37 9 15 16 6 C24 -5 58 -2 81 -2 C104 -2 134 -6 149 3 C161 12 164 40 169 64 C174 83 177 114 192 122 C209 130 233 126 262 126 C283 126 314 129 327 120 C338 111 343 81 347 61 C352 39 354 12 366 3 C380 -6 412 -2 442 -2 C465 -2 501 -7 510 6 C517 15 512 36 507 53 C458 257 410 457 362 659 C355 687 349 736 332 747 C320 755 292 751 271 751 C246 751 218 752 203 750 L203 750 Z M237 439 C241 460 244 487 254 500 C266 498 269 462 272 442 C280 402 289 356 297 318 C300 301 310 265 302 253 C296 243 275 244 258 244 C241 244 222 241 214 253 C206 265 215 298 218 315 C225 358 231 398 237 439 L237 439 Z " />
<glyph glyph-name="acircumflex" unicode="&#xe2;" horiz-adv-x="528" d="M259 968 C242 964 227 943 216 933 C189 909 164 888 137 863 C124 852 103 836 103 822 C102 806 116 797 124 789 C131 781 141 765 155 765 C164 765 176 776 185 784 C203 801 215 814 235 832 C243 840 253 851 265 851 C282 851 306 820 319 808 C334 793 357 765 374 765 C388 765 395 780 404 789 C412 799 426 807 426 822 C425 839 404 851 390 864 L308 938 C296 948 278 972 259 968 L259 968 Z M203 750 C176 747 177 729 170 701 C122 487 71 268 20 54 C16 37 9 15 16 6 C24 -5 58 -2 81 -2 C104 -2 134 -6 149 3 C161 12 164 40 169 64 C174 83 177 114 192 122 C209 130 233 126 262 126 C283 126 314 129 327 120 C338 111 343 81 347 61 C352 39 354 12 366 3 C380 -6 412 -2 442 -2 C465 -2 501 -7 510 6 C517 15 512 36 507 53 C458 257 410 457 362 659 C355 687 349 736 332 747 C320 755 292 751 271 751 C246 751 218 752 203 750 L203 750 Z M237 439 C241 460 244 487 254 500 C266 498 269 462 272 442 C280 402 289 356 297 318 C300 301 310 265 302 253 C296 243 275 244 258 244 C241 244 222 241 214 253 C206 265 215 298 218 315 C225 358 231 398 237 439 L237 439 Z " />
<glyph glyph-name="atilde" unicode="&#xe3;" horiz-adv-x="528" d="M170 934 C131 929 106 897 92 866 C85 851 71 818 81 804 C90 791 137 794 149 799 C168 807 172 834 199 836 C218 837 238 828 256 820 C272 813 289 803 307 798 C372 780 416 825 435 866 C440 877 456 909 449 925 C442 939 391 938 378 932 C358 924 357 901 335 896 C312 890 283 907 265 914 C239 924 205 939 170 934 L170 934 Z M203 750 C176 747 177 729 170 701 C122 487 71 268 20 54 C16 37 9 15 16 6 C24 -5 58 -2 81 -2 C104 -2 134 -6 149 3 C161 12 164 40 169 64 C174 83 177 114 192 122 C209 130 233 126 262 126 C283 126 314 129 327 120 C338 111 343 81 347 61 C352 39 354 12 366 3 C380 -6 412 -2 442 -2 C465 -2 501 -7 510 6 C517 15 512 36 507 53 C458 257 410 457 362 659 C355 687 349 736 332 747 C320 755 292 751 271 751 C246 751 218 752 203 750 L203 750 Z M237 439 C241 460 244 487 254 500 C266 498 269 462 272 442 C280 402 289 356 297 318 C300 301 310 265 302 253 C296 243 275 244 258 244 C241 244 222 241 214 253 C206 265 215 298 218 315 C225 358 231 398 237 439 L237 439 Z " />
<glyph glyph-name="adieresis" unicode="&#xe4;" horiz-adv-x="528" d="M146 953 C110 948 82 921 79 884 C71 802 167 770 215 818 C236 840 247 879 229 913 C221 928 215 933 204 941 C191 950 169 956 146 953 L146 953 Z M357 953 C321 948 293 921 290 884 C282 802 378 770 426 818 C447 840 458 879 440 913 C432 928 426 933 415 941 C402 950 380 956 357 953 L357 953 Z M203 750 C176 747 177 729 170 701 C122 487 71 268 20 54 C16 37 9 15 16 6 C24 -5 58 -2 81 -2 C104 -2 134 -6 149 3 C161 12 164 40 169 64 C174 83 177 114 192 122 C209 130 233 126 262 126 C283 126 314 129 327 120 C338 111 343 81 347 61 C352 39 354 12 366 3 C380 -6 412 -2 442 -2 C465 -2 501 -7 510 6 C517 15 512 36 507 53 C458 257 410 457 362 659 C355 687 349 736 332 747 C320 755 292 751 271 751 C246 751 218 752 203 750 L203 750 Z M237 439 C241 460 244 487 254 500 C266 498 269 462 272 442 C280 402 289 356 297 318 C300 301 310 265 302 253 C296 243 275 244 258 244 C241 244 222 241 214 253 C206 265 215 298 218 315 C225 358 231 398 237 439 L237 439 Z " />
<glyph glyph-name="aring" unicode="&#xe5;" horiz-adv-x="528" d="M507 53 C458 257 410 457 362 659 C357 680 352 712 343 732 C356 749 364 770 364 793 C364 848 319 893 264 893 C209 893 164 848 164 793 C164 772 170 753 180 738 C175 729 174 717 170 701 C122 487 71 268 20 54 C16 37 9 15 16 6 C24 -5 58 -2 81 -2 C104 -2 134 -6 149 3 C161 12 164 40 169 64 C174 83 177 114 192 122 C209 130 233 126 262 126 C283 126 314 129 327 120 C338 111 343 81 347 61 C352 39 354 12 366 3 C380 -6 412 -2 442 -2 C465 -2 501 -7 510 6 C517 15 512 36 507 53 L507 53 Z M264 834 C287 834 305 815 305 793 C305 770 288 752 265 751 L262 751 C240 752 223 771 223 793 C223 815 241 834 264 834 L264 834 Z M302 253 C296 243 275 244 258 244 C241 244 222 241 214 253 C206 265 215 298 218 315 C225 358 231 398 237 439 C241 460 244 487 254 500 C266 498 269 462 272 442 C280 402 289 356 297 318 C300 301 310 265 302 253 L302 253 Z " />
<glyph glyph-name="ae" unicode="&#xe6;" horiz-adv-x="921" d="M306 753 C278 750 274 729 265 706 C180 490 98 277 14 59 C8 45 -4 21 3 9 C10 -5 47 0 71 0 C95 0 130 -3 143 5 C160 15 169 57 178 80 C185 100 196 145 214 154 C225 160 255 158 276 158 L402 158 C423 158 449 160 461 154 C471 149 476 134 482 120 C487 106 492 92 497 80 C505 58 513 16 533 5 C551 -5 598 0 628 0 L828 0 C851 0 911 -6 920 9 C928 24 909 59 905 71 C897 92 894 116 877 124 C864 130 842 128 821 128 L760 128 C731 128 664 122 643 132 C632 137 625 156 619 173 C603 217 590 249 575 293 C573 298 567 311 571 320 C576 332 600 330 622 330 L744 330 C763 330 790 328 796 339 C800 348 795 362 792 371 C788 382 784 391 781 401 C773 421 769 447 754 455 C742 461 720 459 699 459 L580 459 C559 459 536 456 523 462 C512 467 507 481 502 494 L473 572 C469 582 458 601 464 615 C469 627 498 625 516 625 L578 625 C603 625 684 618 693 634 C698 644 692 657 689 666 C685 676 681 686 678 696 C671 716 666 742 651 750 C635 758 593 754 568 754 L481 754 C421 754 347 758 306 753 L306 753 Z M308 455 C312 469 319 503 331 507 C347 512 358 471 362 460 L402 348 C407 335 424 305 417 289 C410 273 360 279 338 279 C314 279 266 274 260 289 C254 303 268 335 272 347 C284 384 297 421 308 455 L308 455 Z " />
<glyph glyph-name="ccedilla" unicode="&#xe7;" horiz-adv-x="452" d="M345 760 C230 758 150 696 102 627 C51 555 15 454 28 331 C40 218 87 129 146 74 C194 30 255 -4 345 -8 C372 -10 410 -9 422 7 C431 19 428 51 428 75 C428 100 431 130 419 136 C408 143 388 136 376 135 C327 133 299 147 269 172 C201 228 166 351 196 467 C217 550 275 623 379 616 C395 615 412 612 420 618 C432 627 428 658 428 680 C428 703 430 730 422 743 C411 759 364 761 345 760 L345 760 Z M286 -26 C271 -32 264 -47 255 -61 C240 -84 227 -102 212 -125 C206 -134 194 -151 195 -162 C196 -174 210 -179 221 -185 C232 -191 244 -200 258 -198 C271 -196 280 -180 289 -170 C308 -147 325 -128 344 -105 C352 -96 368 -82 366 -67 C364 -56 344 -47 332 -41 C317 -33 299 -23 286 -26 L286 -26 Z " />
<glyph glyph-name="egrave" unicode="&#xe8;" horiz-adv-x="392" d="M139 967 C122 966 106 952 91 943 C78 935 54 924 54 910 C54 895 76 879 85 870 C111 844 131 824 157 800 C168 790 181 770 197 769 C209 769 223 779 232 785 C243 792 256 799 257 811 C258 826 239 844 232 854 C210 884 196 907 176 934 C167 947 155 968 139 967 L139 967 Z M77 750 C70 750 62 749 57 743 C47 730 52 678 52 654 C52 554 52 475 52 373 L52 91 C52 63 48 15 60 4 C70 -4 108 -2 129 -2 L279 -2 C301 -2 338 -5 348 5 C358 15 354 46 354 67 C354 88 359 120 349 132 C330 153 234 129 211 144 C197 154 202 204 202 225 C202 247 196 291 210 303 C230 320 310 297 328 315 C338 325 335 357 335 377 C335 393 339 429 329 441 C312 460 226 438 209 455 C198 466 202 506 202 529 C202 559 197 589 208 604 C217 615 255 612 278 612 C302 612 335 607 346 618 C356 629 352 661 352 681 C352 703 356 734 346 745 C337 754 306 751 284 751 L215 751 C168 751 107 754 77 750 L77 750 Z " />
<glyph glyph-name="eacute" unicode="&#xe9;" horiz-adv-x="392" d="M250 967 C234 965 223 943 215 932 C195 905 180 883 159 854 C151 843 134 825 135 810 C136 797 150 792 161 785 C171 779 184 768 196 769 C210 770 226 790 236 800 L307 871 C317 881 339 896 338 911 C337 927 309 937 299 943 C283 953 267 969 250 967 L250 967 Z M77 750 C70 750 62 749 57 743 C47 730 52 678 52 654 C52 554 52 475 52 373 L52 91 C52 63 48 15 60 4 C70 -4 108 -2 129 -2 L279 -2 C301 -2 338 -5 348 5 C358 15 354 46 354 67 C354 88 359 120 349 132 C330 153 234 129 211 144 C197 154 202 204 202 225 C202 247 196 291 210 303 C230 320 310 297 328 315 C338 325 335 357 335 377 C335 393 339 429 329 441 C312 460 226 438 209 455 C198 466 202 506 202 529 C202 559 197 589 208 604 C217 615 255 612 278 612 C302 612 335 607 346 618 C356 629 352 661 352 681 C352 703 356 734 346 745 C337 754 306 751 284 751 L215 751 C168 751 107 754 77 750 L77 750 Z " />
<glyph glyph-name="ecircumflex" unicode="&#xea;" horiz-adv-x="392" d="M191 966 C174 962 159 941 148 931 C121 907 96 886 69 861 C56 850 35 834 35 820 C34 804 48 795 56 787 C63 779 73 763 87 763 C96 763 108 774 117 782 C135 799 147 812 167 830 C175 838 185 849 197 849 C214 849 238 818 251 806 C266 791 289 763 306 763 C320 763 327 778 336 787 C344 797 358 805 358 820 C357 837 336 849 322 862 L240 936 C228 946 210 970 191 966 L191 966 Z M77 750 C70 750 62 749 57 743 C47 730 52 678 52 654 C52 554 52 475 52 373 L52 91 C52 63 48 15 60 4 C70 -4 108 -2 129 -2 L279 -2 C301 -2 338 -5 348 5 C358 15 354 46 354 67 C354 88 359 120 349 132 C330 153 234 129 211 144 C197 154 202 204 202 225 C202 247 196 291 210 303 C230 320 310 297 328 315 C338 325 335 357 335 377 C335 393 339 429 329 441 C312 460 226 438 209 455 C198 466 202 506 202 529 C202 559 197 589 208 604 C217 615 255 612 278 612 C302 612 335 607 346 618 C356 629 352 661 352 681 C352 703 356 734 346 745 C337 754 306 751 284 751 L215 751 C168 751 107 754 77 750 L77 750 Z " />
<glyph glyph-name="edieresis" unicode="&#xeb;" horiz-adv-x="392" d="M78 951 C42 946 14 919 11 882 C3 800 99 768 147 816 C168 838 179 877 161 911 C153 926 147 931 136 939 C123 948 101 954 78 951 L78 951 Z M289 951 C253 946 225 919 222 882 C214 800 310 768 358 816 C379 838 390 877 372 911 C364 926 358 931 347 939 C334 948 312 954 289 951 L289 951 Z M77 750 C70 750 62 749 57 743 C47 730 52 678 52 654 C52 554 52 475 52 373 L52 91 C52 63 48 15 60 4 C70 -4 108 -2 129 -2 L279 -2 C301 -2 338 -5 348 5 C358 15 354 46 354 67 C354 88 359 120 349 132 C330 153 234 129 211 144 C197 154 202 204 202 225 C202 247 196 291 210 303 C230 320 310 297 328 315 C338 325 335 357 335 377 C335 393 339 429 329 441 C312 460 226 438 209 455 C198 466 202 506 202 529 C202 559 197 589 208 604 C217 615 255 612 278 612 C302 612 335 607 346 618 C356 629 352 661 352 681 C352 703 356 734 346 745 C337 754 306 751 284 751 L215 751 C168 751 107 754 77 750 L77 750 Z " />
<glyph glyph-name="igrave" unicode="&#xec;" horiz-adv-x="254" d="M70 972 C53 971 37 957 22 948 C9 940 -15 929 -15 915 C-15 900 7 884 16 875 C42 849 62 829 88 805 C99 795 112 775 128 774 C140 774 154 784 163 790 C174 797 187 804 188 816 C189 831 170 849 163 859 C141 889 127 912 107 939 C98 952 86 973 70 972 L70 972 Z M79 753 C53 750 54 733 54 704 C54 659 54 600 54 563 L54 93 C54 65 50 17 61 6 C71 -4 103 -1 127 -1 C152 -1 182 -6 194 5 C207 16 202 67 202 95 L202 659 C202 688 206 736 195 747 C182 760 98 755 79 753 L79 753 Z " />
<glyph glyph-name="iacute" unicode="&#xed;" horiz-adv-x="254" d="M181 972 C165 970 154 948 146 937 C126 910 111 888 90 859 C82 848 65 830 66 815 C67 802 81 797 92 790 C102 784 115 773 127 774 C141 775 157 795 167 805 L238 876 C248 886 270 901 269 916 C268 932 240 942 230 948 C214 958 198 974 181 972 L181 972 Z M79 753 C53 750 54 733 54 704 C54 659 54 600 54 563 L54 93 C54 65 50 17 61 6 C71 -4 103 -1 127 -1 C152 -1 182 -6 194 5 C207 16 202 67 202 95 L202 659 C202 688 206 736 195 747 C182 760 98 755 79 753 L79 753 Z " />
<glyph glyph-name="icircumflex" unicode="&#xee;" horiz-adv-x="254" d="M122 971 C105 967 90 946 79 936 C52 912 27 891 0 866 C-13 855 -34 839 -34 825 C-35 809 -21 800 -13 792 C-6 784 4 768 18 768 C27 768 39 779 48 787 C66 804 78 817 98 835 C106 843 116 854 128 854 C145 854 169 823 182 811 C197 796 220 768 237 768 C251 768 258 783 267 792 C275 802 289 810 289 825 C288 842 267 854 253 867 L171 941 C159 951 141 975 122 971 L122 971 Z M79 753 C53 750 54 733 54 704 C54 659 54 600 54 563 L54 93 C54 65 50 17 61 6 C71 -4 103 -1 127 -1 C152 -1 182 -6 194 5 C207 16 202 67 202 95 L202 659 C202 688 206 736 195 747 C182 760 98 755 79 753 L79 753 Z " />
<glyph glyph-name="idieresis" unicode="&#xef;" horiz-adv-x="254" d="M9 956 C-27 951 -55 924 -58 887 C-66 805 30 773 78 821 C99 843 110 882 92 916 C84 931 78 936 67 944 C54 953 32 959 9 956 L9 956 Z M220 956 C184 951 156 924 153 887 C145 805 241 773 289 821 C310 843 321 882 303 916 C295 931 289 936 278 944 C265 953 243 959 220 956 L220 956 Z M79 753 C53 750 54 733 54 704 C54 659 54 600 54 563 L54 93 C54 65 50 17 61 6 C71 -4 103 -1 127 -1 C152 -1 182 -6 194 5 C207 16 202 67 202 95 L202 659 C202 688 206 736 195 747 C182 760 98 755 79 753 L79 753 Z " />
<glyph glyph-name="ntilde" unicode="&#xf1;" horiz-adv-x="573" d="M193 937 C154 932 129 900 115 869 C108 854 94 821 104 807 C113 794 160 797 172 802 C191 810 195 837 222 839 C241 840 261 831 279 823 C295 816 312 806 330 801 C395 783 439 828 458 869 C463 880 479 912 472 928 C465 942 414 941 401 935 C381 927 380 904 358 899 C335 893 306 910 288 917 C262 927 228 942 193 937 L193 937 Z M365 366 C350 373 344 392 337 408 C296 507 256 604 216 704 C209 721 203 742 191 749 C179 755 155 753 136 753 C109 753 69 759 58 744 C47 730 53 682 53 655 L53 94 C53 66 48 18 59 6 C70 -4 103 0 127 0 C152 0 182 -4 195 5 C204 12 202 34 202 51 L202 354 C202 370 199 388 208 399 C224 390 229 370 235 354 C279 251 319 151 360 47 C367 29 374 8 387 3 C402 -4 429 0 452 0 C475 0 503 -5 514 6 C526 18 521 66 521 93 L521 658 C521 684 526 734 514 746 C503 757 467 753 445 753 C422 753 387 756 377 745 C365 731 371 680 371 654 L371 409 C371 393 373 377 365 366 L365 366 Z " />
<glyph glyph-name="ograve" unicode="&#xf2;" horiz-adv-x="582" d="M234 972 C217 971 201 957 186 948 C173 940 149 929 149 915 C149 900 171 884 180 875 C206 849 226 829 252 805 C263 795 276 775 292 774 C304 774 318 784 327 790 C338 797 351 804 352 816 C353 831 334 849 327 859 C305 889 291 912 271 939 C262 952 250 973 234 972 L234 972 Z M288 764 C236 764 194 748 162 726 C96 682 59 610 40 521 C8 376 29 205 88 107 C126 41 199 -16 296 -12 C392 -8 458 42 498 111 C538 181 556 269 556 380 C556 483 535 578 495 645 C455 710 389 766 288 764 L288 764 Z M221 577 C234 601 252 621 284 624 C313 628 338 611 351 593 C398 532 405 382 389 274 C380 216 364 156 321 135 C301 125 271 126 251 141 C242 147 231 160 225 171 C173 256 171 488 221 577 L221 577 Z " />
<glyph glyph-name="oacute" unicode="&#xf3;" horiz-adv-x="582" d="M345 972 C329 970 318 948 310 937 C290 910 275 888 254 859 C246 848 229 830 230 815 C231 802 245 797 256 790 C266 784 279 773 291 774 C305 775 321 795 331 805 L402 876 C412 886 434 901 433 916 C432 932 404 942 394 948 C378 958 362 974 345 972 L345 972 Z M288 764 C236 764 194 748 162 726 C96 682 59 610 40 521 C8 376 29 205 88 107 C126 41 199 -16 296 -12 C392 -8 458 42 498 111 C538 181 556 269 556 380 C556 483 535 578 495 645 C455 710 389 766 288 764 L288 764 Z M221 577 C234 601 252 621 284 624 C313 628 338 611 351 593 C398 532 405 382 389 274 C380 216 364 156 321 135 C301 125 271 126 251 141 C242 147 231 160 225 171 C173 256 171 488 221 577 L221 577 Z " />
<glyph glyph-name="ocircumflex" unicode="&#xf4;" horiz-adv-x="582" d="M286 971 C269 967 254 946 243 936 C216 912 191 891 164 866 C151 855 130 839 130 825 C129 809 143 800 151 792 C158 784 168 768 182 768 C191 768 203 779 212 787 C230 804 242 817 262 835 C270 843 280 854 292 854 C309 854 333 823 346 811 C361 796 384 768 401 768 C415 768 422 783 431 792 C439 802 453 810 453 825 C452 842 431 854 417 867 L335 941 C323 951 305 975 286 971 L286 971 Z M288 764 C236 764 194 748 162 726 C96 682 59 610 40 521 C8 376 29 205 88 107 C126 41 199 -16 296 -12 C392 -8 458 42 498 111 C538 181 556 269 556 380 C556 483 535 578 495 645 C455 710 389 766 288 764 L288 764 Z M221 577 C234 601 252 621 284 624 C313 628 338 611 351 593 C398 532 405 382 389 274 C380 216 364 156 321 135 C301 125 271 126 251 141 C242 147 231 160 225 171 C173 256 171 488 221 577 L221 577 Z " />
<glyph glyph-name="otilde" unicode="&#xf5;" horiz-adv-x="582" d="M197 937 C158 932 133 900 119 869 C112 854 98 821 108 807 C117 794 164 797 176 802 C195 810 199 837 226 839 C245 840 265 831 283 823 C299 816 316 806 334 801 C399 783 443 828 462 869 C467 880 483 912 476 928 C469 942 418 941 405 935 C385 927 384 904 362 899 C339 893 310 910 292 917 C266 927 232 942 197 937 L197 937 Z M288 764 C236 764 194 748 162 726 C96 682 59 610 40 521 C8 376 29 205 88 107 C126 41 199 -16 296 -12 C392 -8 458 42 498 111 C538 181 556 269 556 380 C556 483 535 578 495 645 C455 710 389 766 288 764 L288 764 Z M221 577 C234 601 252 621 284 624 C313 628 338 611 351 593 C398 532 405 382 389 274 C380 216 364 156 321 135 C301 125 271 126 251 141 C242 147 231 160 225 171 C173 256 171 488 221 577 L221 577 Z " />
<glyph glyph-name="odieresis" unicode="&#xf6;" horiz-adv-x="582" d="M173 956 C137 951 109 924 106 887 C98 805 194 773 242 821 C263 843 274 882 256 916 C248 931 242 936 231 944 C218 953 196 959 173 956 L173 956 Z M384 956 C348 951 320 924 317 887 C309 805 405 773 453 821 C474 843 485 882 467 916 C459 931 453 936 442 944 C429 953 407 959 384 956 L384 956 Z M288 764 C236 764 194 748 162 726 C96 682 59 610 40 521 C8 376 29 205 88 107 C126 41 199 -16 296 -12 C392 -8 458 42 498 111 C538 181 556 269 556 380 C556 483 535 578 495 645 C455 710 389 766 288 764 L288 764 Z M221 577 C234 601 252 621 284 624 C313 628 338 611 351 593 C398 532 405 382 389 274 C380 216 364 156 321 135 C301 125 271 126 251 141 C242 147 231 160 225 171 C173 256 171 488 221 577 L221 577 Z " />
<glyph glyph-name="divide" unicode="&#xf7;" horiz-adv-x="578" d="M289 532 C243 532 206 494 206 449 C206 403 243 366 289 366 C335 366 372 403 372 449 C372 494 335 532 289 532 L289 532 Z M57 312 C50 311 42 311 37 304 C26 290 29 215 39 205 C48 196 76 198 93 198 L483 198 C503 198 529 196 538 205 C547 214 545 237 545 255 C545 274 547 297 538 306 C529 315 508 313 491 313 C436 313 104 319 57 312 L57 312 Z M289 146 C243 146 206 108 206 63 C206 17 243 -20 289 -20 C335 -20 372 17 372 63 C372 108 335 146 289 146 L289 146 Z " />
<glyph glyph-name="oslash" unicode="&#xf8;" horiz-adv-x="782" d="M707 776 C690 773 677 751 665 739 C654 728 639 706 622 706 C612 706 600 714 592 719 C530 757 451 782 348 772 C243 761 172 716 119 657 C64 596 27 520 20 412 C13 309 36 228 71 164 C76 155 83 143 82 132 C80 114 56 96 44 83 C34 73 5 51 6 33 C6 19 24 6 33 -3 C43 -12 57 -29 71 -29 C88 -29 108 0 117 9 C130 23 144 46 163 47 C173 47 183 39 192 34 C253 -4 336 -28 437 -18 C537 -8 612 35 666 96 C718 156 755 233 764 341 C772 441 749 524 715 588 C710 598 702 608 703 619 C704 635 728 655 740 668 L761 690 C767 697 778 704 778 717 C778 732 760 742 749 752 C735 764 724 779 707 776 L707 776 Z M267 586 C298 609 333 624 378 627 C400 629 432 627 457 619 C474 614 507 601 508 584 C509 568 484 549 475 539 C412 471 350 407 286 338 C274 326 262 312 248 298 C237 287 219 262 205 263 C190 264 183 295 179 313 C174 336 172 358 172 381 C171 431 185 472 200 503 C216 536 236 563 267 586 L267 586 Z M534 448 C545 461 559 483 575 487 C595 492 601 466 606 444 C631 330 587 215 516 163 C486 142 445 126 394 126 C370 126 341 130 324 136 C307 141 278 150 277 168 C276 183 298 201 309 213 C323 229 338 242 347 252 C401 311 443 352 496 409 C507 421 521 434 534 448 L534 448 Z " />
<glyph glyph-name="ugrave" unicode="&#xf9;" horiz-adv-x="544" d="M215 972 C198 971 182 957 167 948 C154 940 130 929 130 915 C130 900 152 884 161 875 C187 849 207 829 233 805 C244 795 257 775 273 774 C285 774 299 784 308 790 C319 797 332 804 333 816 C334 831 315 849 308 859 C286 889 272 912 252 939 C243 952 231 973 215 972 L215 972 Z M73 752 C43 748 49 720 49 688 L49 256 C49 211 48 173 55 140 C74 37 149 -12 273 -12 C354 -12 417 9 454 53 C495 103 495 167 495 259 L495 690 C495 707 497 736 488 746 C477 757 444 753 420 753 C397 753 363 757 352 746 C341 735 345 701 345 678 L345 299 C345 252 350 189 334 158 C322 132 287 115 247 128 C192 146 198 228 198 299 L198 675 C198 696 202 732 193 745 C185 755 155 753 135 753 C112 753 86 753 73 752 L73 752 Z " />
<glyph glyph-name="uacute" unicode="&#xfa;" horiz-adv-x="544" d="M326 972 C310 970 299 948 291 937 C271 910 256 888 235 859 C227 848 210 830 211 815 C212 802 226 797 237 790 C247 784 260 773 272 774 C286 775 302 795 312 805 L383 876 C393 886 415 901 414 916 C413 932 385 942 375 948 C359 958 343 974 326 972 L326 972 Z M73 752 C43 748 49 720 49 688 L49 256 C49 211 48 173 55 140 C74 37 149 -12 273 -12 C354 -12 417 9 454 53 C495 103 495 167 495 259 L495 690 C495 707 497 736 488 746 C477 757 444 753 420 753 C397 753 363 757 352 746 C341 735 345 701 345 678 L345 299 C345 252 350 189 334 158 C322 132 287 115 247 128 C192 146 198 228 198 299 L198 675 C198 696 202 732 193 745 C185 755 155 753 135 753 C112 753 86 753 73 752 L73 752 Z " />
<glyph glyph-name="ucircumflex" unicode="&#xfb;" horiz-adv-x="544" d="M267 971 C250 967 235 946 224 936 C197 912 172 891 145 866 C132 855 111 839 111 825 C110 809 124 800 132 792 C139 784 149 768 163 768 C172 768 184 779 193 787 C211 804 223 817 243 835 C251 843 261 854 273 854 C290 854 314 823 327 811 C342 796 365 768 382 768 C396 768 403 783 412 792 C420 802 434 810 434 825 C433 842 412 854 398 867 L316 941 C304 951 286 975 267 971 L267 971 Z M73 752 C43 748 49 720 49 688 L49 256 C49 211 48 173 55 140 C74 37 149 -12 273 -12 C354 -12 417 9 454 53 C495 103 495 167 495 259 L495 690 C495 707 497 736 488 746 C477 757 444 753 420 753 C397 753 363 757 352 746 C341 735 345 701 345 678 L345 299 C345 252 350 189 334 158 C322 132 287 115 247 128 C192 146 198 228 198 299 L198 675 C198 696 202 732 193 745 C185 755 155 753 135 753 C112 753 86 753 73 752 L73 752 Z " />
<glyph glyph-name="udieresis" unicode="&#xfc;" horiz-adv-x="544" d="M154 956 C118 951 90 924 87 887 C79 805 175 773 223 821 C244 843 255 882 237 916 C229 931 223 936 212 944 C199 953 177 959 154 956 L154 956 Z M365 956 C329 951 301 924 298 887 C290 805 386 773 434 821 C455 843 466 882 448 916 C440 931 434 936 423 944 C410 953 388 959 365 956 L365 956 Z M73 752 C43 748 49 720 49 688 L49 256 C49 211 48 173 55 140 C74 37 149 -12 273 -12 C354 -12 417 9 454 53 C495 103 495 167 495 259 L495 690 C495 707 497 736 488 746 C477 757 444 753 420 753 C397 753 363 757 352 746 C341 735 345 701 345 678 L345 299 C345 252 350 189 334 158 C322 132 287 115 247 128 C192 146 198 228 198 299 L198 675 C198 696 202 732 193 745 C185 755 155 753 135 753 C112 753 86 753 73 752 L73 752 Z " />
<glyph glyph-name="yacute" unicode="&#xfd;" horiz-adv-x="587" d="M348 970 C332 968 321 946 313 935 C293 908 278 886 257 857 C249 846 232 828 233 813 C234 800 248 795 259 788 C269 782 282 771 294 772 C308 773 324 793 334 803 L405 874 C415 884 437 899 436 914 C435 930 407 940 397 946 C381 956 365 972 348 970 L348 970 Z M15 753 L13 753 C-22 747 10 706 20 689 C77 590 133 496 189 395 C200 376 215 354 217 330 C221 281 217 225 217 166 L217 84 C217 57 215 18 223 7 C232 -5 267 -1 292 -1 C318 -1 348 -5 358 6 C369 17 365 63 365 85 L365 259 C365 287 362 322 367 344 C371 360 384 378 394 395 C451 493 508 592 566 691 C573 703 595 727 589 744 C583 760 538 754 517 754 C491 754 456 759 437 751 C421 744 407 712 396 693 C367 639 341 591 310 537 C305 528 298 511 286 512 C270 513 257 553 249 568 C227 613 208 648 186 692 C177 710 165 743 150 750 C136 757 107 754 84 754 C58 754 34 755 15 753 L15 753 Z " />
<glyph glyph-name="ydieresis" unicode="&#xff;" horiz-adv-x="587" d="M176 954 C140 949 112 922 109 885 C101 803 197 771 245 819 C266 841 277 880 259 914 C251 929 245 934 234 942 C221 951 199 957 176 954 L176 954 Z M387 954 C351 949 323 922 320 885 C312 803 408 771 456 819 C477 841 488 880 470 914 C462 929 456 934 445 942 C432 951 410 957 387 954 L387 954 Z M15 753 L13 753 C-22 747 10 706 20 689 C77 590 133 496 189 395 C200 376 215 354 217 330 C221 281 217 225 217 166 L217 84 C217 57 215 18 223 7 C232 -5 267 -1 292 -1 C318 -1 348 -5 358 6 C369 17 365 63 365 85 L365 259 C365 287 362 322 367 344 C371 360 384 378 394 395 C451 493 508 592 566 691 C573 703 595 727 589 744 C583 760 538 754 517 754 C491 754 456 759 437 751 C421 744 407 712 396 693 C367 639 341 591 310 537 C305 528 298 511 286 512 C270 513 257 553 249 568 C227 613 208 648 186 692 C177 710 165 743 150 750 C136 757 107 754 84 754 C58 754 34 755 15 753 L15 753 Z " />
<glyph glyph-name="Amacron" unicode="&#x100;" horiz-adv-x="687" d="M177 951 C169 950 162 949 157 943 C146 929 149 880 159 871 C171 858 220 864 247 864 L439 864 C467 864 515 859 528 871 C539 882 539 934 528 945 C522 951 509 952 491 952 L357 952 C289 952 235 956 178 952 C177 952 177 951 177 951 L177 951 Z M311 773 C284 769 281 750 272 727 C188 505 103 283 19 60 C13 45 1 22 6 9 C12 -6 46 -1 70 -1 C98 -1 126 -4 142 2 C156 7 162 23 168 39 C180 68 189 93 200 121 C205 134 210 150 223 155 C238 161 263 158 282 158 L407 158 C428 158 454 160 467 155 C479 150 483 133 488 121 L503 80 C511 59 523 13 538 4 C551 -4 585 -1 613 -1 C639 -1 672 -7 680 9 C686 22 675 44 669 59 C626 174 589 279 546 392 C500 515 467 606 423 725 C416 743 411 761 400 768 C385 778 330 775 311 773 L311 773 Z M314 468 C318 481 324 521 338 524 C353 528 364 483 368 471 C383 429 395 392 409 350 C414 334 432 302 423 287 C415 273 364 279 342 279 C317 279 272 273 265 290 C259 305 273 335 278 352 C290 393 302 429 314 468 L314 468 Z " />
<glyph glyph-name="amacron" unicode="&#x101;" horiz-adv-x="528" d="M98 925 C90 924 83 923 78 917 C67 903 70 854 80 845 C92 832 141 838 168 838 L360 838 C388 838 436 833 449 845 C460 856 460 908 449 919 C443 925 430 926 412 926 L278 926 C210 926 156 930 99 926 C98 926 98 925 98 925 L98 925 Z M203 750 C176 747 177 729 170 701 C122 487 71 268 20 54 C16 37 9 15 16 6 C24 -5 58 -2 81 -2 C104 -2 134 -6 149 3 C161 12 164 40 169 64 C174 83 177 114 192 122 C209 130 233 126 262 126 C283 126 314 129 327 120 C338 111 343 81 347 61 C352 39 354 12 366 3 C380 -6 412 -2 442 -2 C465 -2 501 -7 510 6 C517 15 512 36 507 53 C458 257 410 457 362 659 C355 687 349 736 332 747 C320 755 292 751 271 751 C246 751 218 752 203 750 L203 750 Z M237 439 C241 460 244 487 254 500 C266 498 269 462 272 442 C280 402 289 356 297 318 C300 301 310 265 302 253 C296 243 275 244 258 244 C241 244 222 241 214 253 C206 265 215 298 218 315 C225 358 231 398 237 439 L237 439 Z " />
<glyph glyph-name="Abreve" unicode="&#x102;" horiz-adv-x="687" d="M193 982 C168 978 171 960 178 939 C199 875 256 827 343 827 C417 827 466 863 494 913 C500 924 519 955 510 973 C503 986 440 987 425 980 C410 974 408 956 400 943 C389 927 369 912 341 913 C314 914 296 926 286 941 C278 951 275 971 262 979 C250 985 213 985 193 982 L193 982 Z M311 773 C284 769 281 750 272 727 C188 505 103 283 19 60 C13 45 1 22 6 9 C12 -6 46 -1 70 -1 C98 -1 126 -4 142 2 C156 7 162 23 168 39 C180 68 189 93 200 121 C205 134 210 150 223 155 C238 161 263 158 282 158 L407 158 C428 158 454 160 467 155 C479 150 483 133 488 121 L503 80 C511 59 523 13 538 4 C551 -4 585 -1 613 -1 C639 -1 672 -7 680 9 C686 22 675 44 669 59 C626 174 589 279 546 392 C500 515 467 606 423 725 C416 743 411 761 400 768 C385 778 330 775 311 773 L311 773 Z M314 468 C318 481 324 521 338 524 C353 528 364 483 368 471 C383 429 395 392 409 350 C414 334 432 302 423 287 C415 273 364 279 342 279 C317 279 272 273 265 290 C259 305 273 335 278 352 C290 393 302 429 314 468 L314 468 Z " />
<glyph glyph-name="abreve" unicode="&#x103;" horiz-adv-x="528" d="M114 956 C89 952 92 934 99 913 C120 849 177 801 264 801 C338 801 387 837 415 887 C421 898 440 929 431 947 C424 960 361 961 346 954 C331 948 329 930 321 917 C310 901 290 886 262 887 C235 888 217 900 207 915 C199 925 196 945 183 953 C171 959 134 959 114 956 L114 956 Z M203 750 C176 747 177 729 170 701 C122 487 71 268 20 54 C16 37 9 15 16 6 C24 -5 58 -2 81 -2 C104 -2 134 -6 149 3 C161 12 164 40 169 64 C174 83 177 114 192 122 C209 130 233 126 262 126 C283 126 314 129 327 120 C338 111 343 81 347 61 C352 39 354 12 366 3 C380 -6 412 -2 442 -2 C465 -2 501 -7 510 6 C517 15 512 36 507 53 C458 257 410 457 362 659 C355 687 349 736 332 747 C320 755 292 751 271 751 C246 751 218 752 203 750 L203 750 Z M237 439 C241 460 244 487 254 500 C266 498 269 462 272 442 C280 402 289 356 297 318 C300 301 310 265 302 253 C296 243 275 244 258 244 C241 244 222 241 214 253 C206 265 215 298 218 315 C225 358 231 398 237 439 L237 439 Z " />
<glyph glyph-name="Aogonek" unicode="&#x104;" horiz-adv-x="687" d="M706 -114 C697 -105 679 -117 661 -114 C646 -112 634 -100 628 -86 C615 -48 644 -29 656 -2 C667 -1 676 2 680 9 C686 22 675 44 669 59 C626 174 589 279 546 392 C500 515 467 606 423 725 C416 743 411 761 400 768 C385 778 330 775 311 773 C284 769 281 750 272 727 C188 505 103 283 19 60 C13 45 1 22 6 9 C12 -6 46 -1 70 -1 C98 -1 126 -4 142 2 C156 7 162 23 168 39 C180 68 189 93 200 121 C205 134 210 150 223 155 C238 161 263 158 282 158 L407 158 C428 158 454 160 467 155 C479 150 483 133 488 121 L503 80 C511 59 523 13 538 4 C547 -2 567 -2 588 -1 C576 -10 566 -22 558 -34 C544 -54 531 -84 534 -118 C539 -158 576 -190 622 -193 C651 -195 685 -191 698 -174 C705 -165 718 -124 706 -114 L706 -114 Z M423 287 C415 273 364 279 342 279 C317 279 272 273 265 290 C259 305 273 335 278 352 C290 393 302 429 314 468 C318 481 324 521 338 524 C353 528 364 483 368 471 C383 429 395 392 409 350 C414 334 432 302 423 287 L423 287 Z " />
<glyph glyph-name="aogonek" unicode="&#x105;" horiz-adv-x="528" d="M545 -117 C536 -108 518 -120 500 -117 C485 -115 473 -103 467 -89 C453 -50 486 -31 497 -1 C503 0 507 2 510 6 C517 15 512 36 507 53 C458 257 410 457 362 659 C355 687 349 736 332 747 C320 755 292 751 271 751 C246 751 218 752 203 750 C176 747 177 729 170 701 C122 487 71 268 20 54 C16 37 9 15 16 6 C24 -5 58 -2 81 -2 C104 -2 134 -6 149 3 C161 12 164 40 169 64 C174 83 177 114 192 122 C209 130 233 126 262 126 C283 126 314 129 327 120 C338 111 343 81 347 61 C352 39 354 12 366 3 C378 -5 404 -3 430 -2 C417 -11 406 -24 397 -37 C383 -57 370 -87 373 -121 C378 -161 415 -193 461 -196 C490 -198 524 -194 537 -177 C544 -168 557 -127 545 -117 L545 -117 Z M302 253 C296 243 275 244 258 244 C241 244 222 241 214 253 C206 265 215 298 218 315 C225 358 231 398 237 439 C241 460 244 487 254 500 C266 498 269 462 272 442 C280 402 289 356 297 318 C300 301 310 265 302 253 L302 253 Z " />
<glyph glyph-name="Cacute" unicode="&#x106;" horiz-adv-x="601" d="M355 972 C339 970 328 948 320 937 C300 910 285 888 264 859 C256 848 239 830 240 815 C241 802 255 797 266 790 C276 784 289 773 301 774 C315 775 331 795 341 805 L412 876 C422 886 444 901 443 916 C442 932 414 942 404 948 C388 958 372 974 355 972 L355 972 Z M369 773 C336 771 305 766 276 756 C192 728 136 679 92 616 C35 535 -3 402 30 271 C58 160 125 71 215 23 C262 -2 317 -21 387 -21 C419 -21 453 -14 480 -6 C503 1 542 10 553 30 C561 45 558 77 558 107 C558 126 563 176 549 180 C539 183 528 172 520 166 C494 147 465 132 431 125 C379 114 324 127 288 148 C253 169 226 200 205 238 C183 277 168 320 170 377 C173 488 220 565 289 605 C325 626 375 639 430 629 C465 622 494 608 520 589 C527 584 539 571 549 574 C563 578 558 629 558 646 C558 671 562 707 554 724 C544 746 502 756 476 763 C441 772 402 775 369 773 L369 773 Z " />
<glyph glyph-name="cacute" unicode="&#x107;" horiz-adv-x="452" d="M341 972 C325 970 314 948 306 937 C286 910 271 888 250 859 C242 848 225 830 226 815 C227 802 241 797 252 790 C262 784 275 773 287 774 C301 775 317 795 327 805 L398 876 C408 886 430 901 429 916 C428 932 400 942 390 948 C374 958 358 974 341 972 L341 972 Z M345 760 C230 758 150 696 102 627 C51 555 15 454 28 331 C40 218 87 129 146 74 C194 30 255 -4 345 -8 C372 -10 410 -9 422 7 C431 19 428 51 428 75 C428 100 431 130 419 136 C408 143 388 136 376 135 C327 133 299 147 269 172 C201 228 166 351 196 467 C217 550 275 623 379 616 C395 615 412 612 420 618 C432 627 428 658 428 680 C428 703 430 730 422 743 C411 759 364 761 345 760 L345 760 Z " />
<glyph glyph-name="Ccircumflex" unicode="&#x108;" horiz-adv-x="601" d="M355 1051 C338 1047 323 1026 312 1016 C285 992 260 971 233 946 C220 935 199 919 199 905 C198 889 212 880 220 872 C227 864 237 848 251 848 C260 848 272 859 281 867 C299 884 311 897 331 915 C339 923 349 934 361 934 C378 934 402 903 415 891 C430 876 453 848 470 848 C484 848 491 863 500 872 C508 882 522 890 522 905 C521 922 500 934 486 947 L404 1021 C392 1031 374 1055 355 1051 L355 1051 Z M369 773 C336 771 305 766 276 756 C192 728 136 679 92 616 C35 535 -3 402 30 271 C58 160 125 71 215 23 C262 -2 317 -21 387 -21 C419 -21 453 -14 480 -6 C503 1 542 10 553 30 C561 45 558 77 558 107 C558 126 563 176 549 180 C539 183 528 172 520 166 C494 147 465 132 431 125 C379 114 324 127 288 148 C253 169 226 200 205 238 C183 277 168 320 170 377 C173 488 220 565 289 605 C325 626 375 639 430 629 C465 622 494 608 520 589 C527 584 539 571 549 574 C563 578 558 629 558 646 C558 671 562 707 554 724 C544 746 502 756 476 763 C441 772 402 775 369 773 L369 773 Z " />
<glyph glyph-name="ccircumflex" unicode="&#x109;" horiz-adv-x="452" d="M291 1011 C274 1007 259 986 248 976 C221 952 196 931 169 906 C156 895 135 879 135 865 C134 849 148 840 156 832 C163 824 173 808 187 808 C196 808 208 819 217 827 C235 844 247 857 267 875 C275 883 285 894 297 894 C314 894 338 863 351 851 C366 836 389 808 406 808 C420 808 427 823 436 832 C444 842 458 850 458 865 C457 882 436 894 422 907 L340 981 C328 991 310 1015 291 1011 L291 1011 Z M345 760 C230 758 150 696 102 627 C51 555 15 454 28 331 C40 218 87 129 146 74 C194 30 255 -4 345 -8 C372 -10 410 -9 422 7 C431 19 428 51 428 75 C428 100 431 130 419 136 C408 143 388 136 376 135 C327 133 299 147 269 172 C201 228 166 351 196 467 C217 550 275 623 379 616 C395 615 412 612 420 618 C432 627 428 658 428 680 C428 703 430 730 422 743 C411 759 364 761 345 760 L345 760 Z " />
<glyph glyph-name="Cdotaccent" unicode="&#x10a;" horiz-adv-x="601" d="M289 976 C254 971 226 945 222 909 C216 854 260 817 303 818 C355 819 401 874 373 934 C360 960 329 982 289 976 L289 976 Z M369 773 C336 771 305 766 276 756 C192 728 136 679 92 616 C35 535 -3 402 30 271 C58 160 125 71 215 23 C262 -2 317 -21 387 -21 C419 -21 453 -14 480 -6 C503 1 542 10 553 30 C561 45 558 77 558 107 C558 126 563 176 549 180 C539 183 528 172 520 166 C494 147 465 132 431 125 C379 114 324 127 288 148 C253 169 226 200 205 238 C183 277 168 320 170 377 C173 488 220 565 289 605 C325 626 375 639 430 629 C465 622 494 608 520 589 C527 584 539 571 549 574 C563 578 558 629 558 646 C558 671 562 707 554 724 C544 746 502 756 476 763 C441 772 402 775 369 773 L369 773 Z " />
<glyph glyph-name="cdotaccent" unicode="&#x10b;" horiz-adv-x="452" d="M275 976 C240 971 212 945 208 909 C202 854 246 817 289 818 C341 819 387 874 359 934 C346 960 315 982 275 976 L275 976 Z M345 760 C230 758 150 696 102 627 C51 555 15 454 28 331 C40 218 87 129 146 74 C194 30 255 -4 345 -8 C372 -10 410 -9 422 7 C431 19 428 51 428 75 C428 100 431 130 419 136 C408 143 388 136 376 135 C327 133 299 147 269 172 C201 228 166 351 196 467 C217 550 275 623 379 616 C395 615 412 612 420 618 C432 627 428 658 428 680 C428 703 430 730 422 743 C411 759 364 761 345 760 L345 760 Z " />
<glyph glyph-name="Ccaron" unicode="&#x10c;" horiz-adv-x="601" d="M182 981 C170 980 161 968 151 957 C141 946 130 937 131 925 C132 908 160 892 169 884 C198 858 226 835 254 810 C265 800 283 777 301 777 C317 777 335 799 348 810 C379 836 403 857 434 884 C444 893 471 910 471 927 C471 938 456 951 449 959 C441 968 432 982 418 982 C408 982 395 969 387 962 L332 915 C321 906 313 895 300 895 C290 895 279 905 269 914 C249 931 234 945 215 962 C205 971 194 982 182 981 L182 981 Z M369 773 C336 771 305 766 276 756 C192 728 136 679 92 616 C35 535 -3 402 30 271 C58 160 125 71 215 23 C262 -2 317 -21 387 -21 C419 -21 453 -14 480 -6 C503 1 542 10 553 30 C561 45 558 77 558 107 C558 126 563 176 549 180 C539 183 528 172 520 166 C494 147 465 132 431 125 C379 114 324 127 288 148 C253 169 226 200 205 238 C183 277 168 320 170 377 C173 488 220 565 289 605 C325 626 375 639 430 629 C465 622 494 608 520 589 C527 584 539 571 549 574 C563 578 558 629 558 646 C558 671 562 707 554 724 C544 746 502 756 476 763 C441 772 402 775 369 773 L369 773 Z " />
<glyph glyph-name="ccaron" unicode="&#x10d;" horiz-adv-x="452" d="M168 981 C156 980 147 968 137 957 C127 946 116 937 117 925 C118 908 146 892 155 884 C184 858 212 835 240 810 C251 800 269 777 287 777 C303 777 321 799 334 810 C365 836 389 857 420 884 C430 893 457 910 457 927 C457 938 442 951 435 959 C427 968 418 982 404 982 C394 982 381 969 373 962 L318 915 C307 906 299 895 286 895 C276 895 265 905 255 914 C235 931 220 945 201 962 C191 971 180 982 168 981 L168 981 Z M345 760 C230 758 150 696 102 627 C51 555 15 454 28 331 C40 218 87 129 146 74 C194 30 255 -4 345 -8 C372 -10 410 -9 422 7 C431 19 428 51 428 75 C428 100 431 130 419 136 C408 143 388 136 376 135 C327 133 299 147 269 172 C201 228 166 351 196 467 C217 550 275 623 379 616 C395 615 412 612 420 618 C432 627 428 658 428 680 C428 703 430 730 422 743 C411 759 364 761 345 760 L345 760 Z " />
<glyph glyph-name="Dcaron" unicode="&#x10e;" horiz-adv-x="530" d="M146 981 C134 980 125 968 115 957 C105 946 94 937 95 925 C96 908 124 892 133 884 C162 858 190 835 218 810 C229 800 247 777 265 777 C281 777 299 799 312 810 C343 836 367 857 398 884 C408 893 435 910 435 927 C435 938 420 951 413 959 C405 968 396 982 382 982 C372 982 359 969 351 962 L296 915 C285 906 277 895 264 895 C254 895 243 905 233 914 C213 931 198 945 179 962 C169 971 158 982 146 981 L146 981 Z M168 751 C145 750 73 758 60 745 C48 733 53 688 53 658 L53 95 C53 67 48 19 59 6 C67 -3 84 -2 103 -2 C151 -2 202 -3 243 2 C413 24 491 142 502 320 C510 450 489 562 437 636 C385 710 305 758 168 751 L168 751 Z M203 584 C203 601 206 612 222 613 C223 614 226 614 229 613 C273 607 301 574 319 539 C374 433 364 220 278 156 C267 148 230 127 211 139 C196 150 203 220 203 252 L203 373 C203 447 200 508 203 584 L203 584 Z " />
<glyph glyph-name="dcaron" unicode="&#x10f;" horiz-adv-x="646" d="M159 982 C147 981 138 969 128 958 C118 947 107 938 108 926 C109 909 137 893 146 885 C175 859 203 836 231 811 C242 801 260 778 278 778 C294 778 312 800 325 811 C356 837 380 858 411 885 C421 894 448 911 448 928 C448 939 433 952 426 960 C418 969 409 983 395 983 C385 983 372 970 364 963 L309 916 C298 907 290 896 277 896 C267 896 256 906 246 915 C226 932 211 946 192 963 C182 972 171 983 159 982 L159 982 Z M79 753 C52 749 54 730 54 701 L54 93 C54 65 50 17 61 6 C70 -2 92 -1 112 -1 C175 -1 232 -3 287 0 C362 4 420 28 465 57 C559 117 623 218 629 363 C636 517 565 626 482 686 C439 718 383 743 312 751 C278 755 239 754 198 754 C161 754 114 757 79 753 L79 753 Z M202 560 C202 594 196 620 227 624 C264 629 311 618 339 608 C430 575 482 492 476 364 C470 222 402 144 265 130 C247 128 220 126 210 134 C195 147 202 223 202 250 C202 330 202 418 202 498 L202 560 Z " />
<glyph glyph-name="Dcroat" unicode="&#x110;" horiz-adv-x="530" d="M437 636 C385 710 305 758 168 751 C145 750 73 758 60 745 C48 733 53 688 53 658 L53 435 C39 436 22 435 7 433 C-23 429 -18 407 -18 375 C-18 354 -19 334 -11 326 C-3 318 23 319 44 319 C47 319 50 319 53 319 L53 95 C53 67 48 19 59 6 C67 -3 84 -2 103 -2 C151 -2 202 -3 243 2 C413 24 491 142 502 320 C510 450 489 562 437 636 L437 636 Z M278 156 C267 148 230 127 211 139 C196 150 203 220 203 252 C203 279 203 298 203 319 L210 319 C232 319 257 317 266 326 C278 338 277 416 266 427 C258 435 239 434 214 434 L202 434 C202 483 201 530 203 584 C203 601 206 612 222 613 C223 614 226 614 229 613 C273 607 301 574 319 539 C374 433 364 220 278 156 L278 156 Z " />
<glyph glyph-name="dcroat" unicode="&#x111;" horiz-adv-x="646" d="M482 686 C439 718 383 743 312 751 C278 755 239 754 198 754 C161 754 114 757 79 753 C52 749 54 730 54 701 L54 423 C42 423 28 423 16 421 C-14 417 -9 395 -9 363 C-9 342 -10 322 -2 314 C6 306 32 307 53 307 C53 307 54 307 54 307 L54 93 C54 65 50 17 61 6 C70 -2 92 -1 112 -1 C175 -1 232 -3 287 0 C362 4 420 28 465 57 C559 117 623 218 629 363 C636 517 565 626 482 686 L482 686 Z M476 364 C470 222 402 144 265 130 C247 128 220 126 210 134 C195 147 202 223 202 250 C202 269 202 288 202 307 L219 307 C241 307 266 305 275 314 C287 326 286 404 275 415 C267 423 248 422 223 422 L202 422 C202 448 202 473 202 498 L202 560 C202 594 196 620 227 624 C264 629 311 618 339 608 C430 575 482 492 476 364 L476 364 Z " />
<glyph glyph-name="Emacron" unicode="&#x112;" horiz-adv-x="488" d="M78 928 C70 927 63 926 58 920 C47 906 50 857 60 848 C72 835 121 841 148 841 L340 841 C368 841 416 836 429 848 C440 859 440 911 429 922 C423 928 410 929 392 929 L258 929 C190 929 136 933 79 929 C78 929 78 928 78 928 L78 928 Z M79 753 L77 753 C44 752 54 692 54 658 L54 94 C54 63 49 18 61 6 C73 -6 128 -1 152 -1 L346 -1 C373 -1 421 -7 437 5 C448 13 445 41 445 64 C445 85 449 110 438 121 C430 129 406 128 385 128 L263 128 C242 128 219 126 209 135 C196 148 202 205 202 231 C202 261 196 311 209 324 C218 333 241 331 263 331 L378 331 C398 331 421 330 429 338 C441 350 441 442 429 453 C420 462 401 460 378 460 L261 460 C244 460 218 458 209 467 C197 479 202 521 202 544 C202 571 197 606 209 618 C218 627 239 625 262 625 L382 625 C403 625 427 623 437 631 C448 639 445 670 445 689 C445 709 448 736 439 746 C432 755 415 754 398 754 L171 754 C139 754 101 756 79 753 L79 753 Z " />
<glyph glyph-name="emacron" unicode="&#x113;" horiz-adv-x="392" d="M30 923 C22 922 15 921 10 915 C-1 901 2 852 12 843 C24 830 73 836 100 836 L292 836 C320 836 368 831 381 843 C392 854 392 906 381 917 C375 923 362 924 344 924 L210 924 C142 924 88 928 31 924 C30 924 30 923 30 923 L30 923 Z M77 750 C70 750 62 749 57 743 C47 730 52 678 52 654 C52 554 52 475 52 373 L52 91 C52 63 48 15 60 4 C70 -4 108 -2 129 -2 L279 -2 C301 -2 338 -5 348 5 C358 15 354 46 354 67 C354 88 359 120 349 132 C330 153 234 129 211 144 C197 154 202 204 202 225 C202 247 196 291 210 303 C230 320 310 297 328 315 C338 325 335 357 335 377 C335 393 339 429 329 441 C312 460 226 438 209 455 C198 466 202 506 202 529 C202 559 197 589 208 604 C217 615 255 612 278 612 C302 612 335 607 346 618 C356 629 352 661 352 681 C352 703 356 734 346 745 C337 754 306 751 284 751 L215 751 C168 751 107 754 77 750 L77 750 Z " />
<glyph glyph-name="Ebreve" unicode="&#x114;" horiz-adv-x="488" d="M93 959 C68 955 71 937 78 916 C99 852 156 804 243 804 C317 804 366 840 394 890 C400 901 419 932 410 950 C403 963 340 964 325 957 C310 951 308 933 300 920 C289 904 269 889 241 890 C214 891 196 903 186 918 C178 928 175 948 162 956 C150 962 113 962 93 959 L93 959 Z M79 753 L77 753 C44 752 54 692 54 658 L54 94 C54 63 49 18 61 6 C73 -6 128 -1 152 -1 L346 -1 C373 -1 421 -7 437 5 C448 13 445 41 445 64 C445 85 449 110 438 121 C430 129 406 128 385 128 L263 128 C242 128 219 126 209 135 C196 148 202 205 202 231 C202 261 196 311 209 324 C218 333 241 331 263 331 L378 331 C398 331 421 330 429 338 C441 350 441 442 429 453 C420 462 401 460 378 460 L261 460 C244 460 218 458 209 467 C197 479 202 521 202 544 C202 571 197 606 209 618 C218 627 239 625 262 625 L382 625 C403 625 427 623 437 631 C448 639 445 670 445 689 C445 709 448 736 439 746 C432 755 415 754 398 754 L171 754 C139 754 101 756 79 753 L79 753 Z " />
<glyph glyph-name="ebreve" unicode="&#x115;" horiz-adv-x="392" d="M46 959 C21 955 24 937 31 916 C52 852 109 804 196 804 C270 804 319 840 347 890 C353 901 372 932 363 950 C356 963 293 964 278 957 C263 951 261 933 253 920 C242 904 222 889 194 890 C167 891 149 903 139 918 C131 928 128 948 115 956 C103 962 66 962 46 959 L46 959 Z M77 750 C70 750 62 749 57 743 C47 730 52 678 52 654 C52 554 52 475 52 373 L52 91 C52 63 48 15 60 4 C70 -4 108 -2 129 -2 L279 -2 C301 -2 338 -5 348 5 C358 15 354 46 354 67 C354 88 359 120 349 132 C330 153 234 129 211 144 C197 154 202 204 202 225 C202 247 196 291 210 303 C230 320 310 297 328 315 C338 325 335 357 335 377 C335 393 339 429 329 441 C312 460 226 438 209 455 C198 466 202 506 202 529 C202 559 197 589 208 604 C217 615 255 612 278 612 C302 612 335 607 346 618 C356 629 352 661 352 681 C352 703 356 734 346 745 C337 754 306 751 284 751 L215 751 C168 751 107 754 77 750 L77 750 Z " />
<glyph glyph-name="Edotaccent" unicode="&#x116;" horiz-adv-x="488" d="M232 976 C197 971 169 945 165 909 C159 854 203 817 246 818 C298 819 344 874 316 934 C303 960 272 982 232 976 L232 976 Z M79 753 L77 753 C44 752 54 692 54 658 L54 94 C54 63 49 18 61 6 C73 -6 128 -1 152 -1 L346 -1 C373 -1 421 -7 437 5 C448 13 445 41 445 64 C445 85 449 110 438 121 C430 129 406 128 385 128 L263 128 C242 128 219 126 209 135 C196 148 202 205 202 231 C202 261 196 311 209 324 C218 333 241 331 263 331 L378 331 C398 331 421 330 429 338 C441 350 441 442 429 453 C420 462 401 460 378 460 L261 460 C244 460 218 458 209 467 C197 479 202 521 202 544 C202 571 197 606 209 618 C218 627 239 625 262 625 L382 625 C403 625 427 623 437 631 C448 639 445 670 445 689 C445 709 448 736 439 746 C432 755 415 754 398 754 L171 754 C139 754 101 756 79 753 L79 753 Z " />
<glyph glyph-name="edotaccent" unicode="&#x117;" horiz-adv-x="392" d="M184 971 C149 966 121 940 117 904 C111 849 155 812 198 813 C250 814 296 869 268 929 C255 955 224 977 184 971 L184 971 Z M77 750 C70 750 62 749 57 743 C47 730 52 678 52 654 C52 554 52 475 52 373 L52 91 C52 63 48 15 60 4 C70 -4 108 -2 129 -2 L279 -2 C301 -2 338 -5 348 5 C358 15 354 46 354 67 C354 88 359 120 349 132 C330 153 234 129 211 144 C197 154 202 204 202 225 C202 247 196 291 210 303 C230 320 310 297 328 315 C338 325 335 357 335 377 C335 393 339 429 329 441 C312 460 226 438 209 455 C198 466 202 506 202 529 C202 559 197 589 208 604 C217 615 255 612 278 612 C302 612 335 607 346 618 C356 629 352 661 352 681 C352 703 356 734 346 745 C337 754 306 751 284 751 L215 751 C168 751 107 754 77 750 L77 750 Z " />
<glyph glyph-name="Eogonek" unicode="&#x118;" horiz-adv-x="488" d="M438 121 C430 129 406 128 385 128 L263 128 C242 128 219 126 209 135 C196 148 202 205 202 231 C202 261 196 311 209 324 C218 333 241 331 263 331 L378 331 C398 331 421 330 429 338 C441 350 441 442 429 453 C420 462 401 460 378 460 L261 460 C244 460 218 458 209 467 C197 479 202 521 202 544 C202 571 197 606 209 618 C218 627 239 625 262 625 L382 625 C403 625 427 623 437 631 C448 639 445 670 445 689 C445 709 448 736 439 746 C432 755 415 754 398 754 L171 754 C139 754 101 756 79 753 L77 753 C44 752 54 692 54 658 L54 94 C54 63 49 18 61 6 C73 -6 128 -1 152 -1 L215 -1 C200 -10 189 -24 179 -38 C165 -58 152 -88 155 -122 C160 -162 197 -194 243 -197 C272 -199 306 -195 319 -178 C326 -169 339 -128 327 -118 C318 -109 300 -121 282 -118 C267 -116 255 -104 249 -90 C235 -50 269 -31 279 -1 L346 -1 C373 -1 421 -7 437 5 C448 13 445 41 445 64 C445 85 449 110 438 121 L438 121 Z " />
<glyph glyph-name="eogonek" unicode="&#x119;" horiz-adv-x="392" d="M349 132 C330 153 234 129 211 144 C197 154 202 204 202 225 C202 247 196 291 210 303 C230 320 310 297 328 315 C338 325 335 357 335 377 C335 393 339 429 329 441 C312 460 226 438 209 455 C198 466 202 506 202 529 C202 559 197 589 208 604 C217 615 255 612 278 612 C302 612 335 607 346 618 C356 629 352 661 352 681 C352 703 356 734 346 745 C337 754 306 751 284 751 L215 751 C168 751 107 754 77 750 C70 750 62 749 57 743 C47 730 52 678 52 654 C52 554 52 475 52 373 L52 91 C52 63 48 15 60 4 C70 -4 108 -2 129 -2 L182 -2 C167 -11 156 -25 146 -39 C132 -59 119 -89 122 -123 C127 -163 164 -195 210 -198 C239 -200 273 -196 286 -179 C293 -170 306 -129 294 -119 C285 -110 267 -122 249 -119 C234 -117 222 -105 216 -91 C202 -51 236 -32 246 -2 L279 -2 C301 -2 338 -5 348 5 C358 15 354 46 354 67 C354 88 359 120 349 132 L349 132 Z " />
<glyph glyph-name="Ecaron" unicode="&#x11a;" horiz-adv-x="488" d="M125 981 C113 980 104 968 94 957 C84 946 73 937 74 925 C75 908 103 892 112 884 C141 858 169 835 197 810 C208 800 226 777 244 777 C260 777 278 799 291 810 C322 836 346 857 377 884 C387 893 414 910 414 927 C414 938 399 951 392 959 C384 968 375 982 361 982 C351 982 338 969 330 962 L275 915 C264 906 256 895 243 895 C233 895 222 905 212 914 C192 931 177 945 158 962 C148 971 137 982 125 981 L125 981 Z M79 753 L77 753 C44 752 54 692 54 658 L54 94 C54 63 49 18 61 6 C73 -6 128 -1 152 -1 L346 -1 C373 -1 421 -7 437 5 C448 13 445 41 445 64 C445 85 449 110 438 121 C430 129 406 128 385 128 L263 128 C242 128 219 126 209 135 C196 148 202 205 202 231 C202 261 196 311 209 324 C218 333 241 331 263 331 L378 331 C398 331 421 330 429 338 C441 350 441 442 429 453 C420 462 401 460 378 460 L261 460 C244 460 218 458 209 467 C197 479 202 521 202 544 C202 571 197 606 209 618 C218 627 239 625 262 625 L382 625 C403 625 427 623 437 631 C448 639 445 670 445 689 C445 709 448 736 439 746 C432 755 415 754 398 754 L171 754 C139 754 101 756 79 753 L79 753 Z " />
<glyph glyph-name="ecaron" unicode="&#x11b;" horiz-adv-x="392" d="M77 976 C65 975 56 963 46 952 C36 941 25 932 26 920 C27 903 55 887 64 879 C93 853 121 830 149 805 C160 795 178 772 196 772 C212 772 230 794 243 805 C274 831 298 852 329 879 C339 888 366 905 366 922 C366 933 351 946 344 954 C336 963 327 977 313 977 C303 977 290 964 282 957 L227 910 C216 901 208 890 195 890 C185 890 174 900 164 909 C144 926 129 940 110 957 C100 966 89 977 77 976 L77 976 Z M77 750 C70 750 62 749 57 743 C47 730 52 678 52 654 C52 554 52 475 52 373 L52 91 C52 63 48 15 60 4 C70 -4 108 -2 129 -2 L279 -2 C301 -2 338 -5 348 5 C358 15 354 46 354 67 C354 88 359 120 349 132 C330 153 234 129 211 144 C197 154 202 204 202 225 C202 247 196 291 210 303 C230 320 310 297 328 315 C338 325 335 357 335 377 C335 393 339 429 329 441 C312 460 226 438 209 455 C198 466 202 506 202 529 C202 559 197 589 208 604 C217 615 255 612 278 612 C302 612 335 607 346 618 C356 629 352 661 352 681 C352 703 356 734 346 745 C337 754 306 751 284 751 L215 751 C168 751 107 754 77 750 L77 750 Z " />
<glyph glyph-name="Gcircumflex" unicode="&#x11c;" horiz-adv-x="563" d="M276 1013 C259 1009 244 988 233 978 C206 954 181 933 154 908 C141 897 120 881 120 867 C119 851 133 842 141 834 C148 826 158 810 172 810 C181 810 193 821 202 829 C220 846 232 859 252 877 C260 885 270 896 282 896 C299 896 323 865 336 853 C351 838 374 810 391 810 C405 810 412 825 421 834 C429 844 443 852 443 867 C442 884 421 896 407 909 L325 983 C313 993 295 1017 276 1013 L276 1013 Z M287 763 C209 759 153 727 116 685 C43 602 12 441 32 286 C40 217 63 149 94 100 C139 29 224 -33 346 -8 C378 -2 408 14 430 31 C507 94 537 216 537 357 C537 378 540 403 530 412 C522 421 497 419 477 419 L354 419 C336 419 309 421 300 412 C290 402 293 372 293 349 C293 326 288 297 300 285 C319 266 366 290 382 270 C391 256 384 228 381 211 C374 180 356 146 331 134 C280 109 236 146 216 186 C200 220 192 265 188 314 C181 417 189 526 227 584 C238 601 248 611 264 618 C304 637 340 613 354 587 C362 572 364 542 381 538 C393 534 408 542 417 545 L451 559 C468 566 507 573 511 592 C513 604 505 619 500 630 C464 706 395 768 287 763 L287 763 Z " />
<glyph glyph-name="gcircumflex" unicode="&#x11d;" horiz-adv-x="739" d="M364 1021 C347 1017 332 996 321 986 C294 962 269 941 242 916 C229 905 208 889 208 875 C207 859 221 850 229 842 C236 834 246 818 260 818 C269 818 281 829 290 837 C308 854 320 867 340 885 C348 893 358 904 370 904 C387 904 411 873 424 861 C439 846 462 818 479 818 C493 818 500 833 509 842 C517 852 531 860 531 875 C530 892 509 904 495 917 L413 991 C401 1001 383 1025 364 1021 L364 1021 Z M364 773 C343 772 321 770 300 765 C169 735 84 642 43 527 C18 458 9 362 27 280 C43 206 74 142 121 91 C178 29 251 -14 362 -20 C431 -24 491 -8 537 16 C641 70 704 182 718 330 C719 348 724 381 714 393 C704 404 666 401 637 401 L475 401 C451 401 412 405 401 394 C391 385 394 358 394 342 C394 320 392 297 400 288 C410 276 446 280 474 280 C499 280 537 284 547 271 C560 253 536 210 527 196 C501 155 465 124 413 114 C315 94 250 154 216 207 C190 248 174 297 171 359 C167 422 182 478 203 521 C234 584 288 640 376 643 C452 646 505 600 535 556 C541 546 548 533 561 532 C572 531 583 540 593 545 L623 561 C642 571 673 580 675 600 C676 614 663 630 656 641 C598 721 500 780 364 773 L364 773 Z " />
<glyph glyph-name="Gbreve" unicode="&#x11e;" horiz-adv-x="563" d="M132 959 C107 955 110 937 117 916 C138 852 195 804 282 804 C356 804 405 840 433 890 C439 901 458 932 449 950 C442 963 379 964 364 957 C349 951 347 933 339 920 C328 904 308 889 280 890 C253 891 235 903 225 918 C217 928 214 948 201 956 C189 962 152 962 132 959 L132 959 Z M287 763 C209 759 153 727 116 685 C43 602 12 441 32 286 C40 217 63 149 94 100 C139 29 224 -33 346 -8 C378 -2 408 14 430 31 C507 94 537 216 537 357 C537 378 540 403 530 412 C522 421 497 419 477 419 L354 419 C336 419 309 421 300 412 C290 402 293 372 293 349 C293 326 288 297 300 285 C319 266 366 290 382 270 C391 256 384 228 381 211 C374 180 356 146 331 134 C280 109 236 146 216 186 C200 220 192 265 188 314 C181 417 189 526 227 584 C238 601 248 611 264 618 C304 637 340 613 354 587 C362 572 364 542 381 538 C393 534 408 542 417 545 L451 559 C468 566 507 573 511 592 C513 604 505 619 500 630 C464 706 395 768 287 763 L287 763 Z " />
<glyph glyph-name="gbreve" unicode="&#x11f;" horiz-adv-x="739" d="M220 959 C195 955 198 937 205 916 C226 852 283 804 370 804 C444 804 493 840 521 890 C527 901 546 932 537 950 C530 963 467 964 452 957 C437 951 435 933 427 920 C416 904 396 889 368 890 C341 891 323 903 313 918 C305 928 302 948 289 956 C277 962 240 962 220 959 L220 959 Z M364 773 C343 772 321 770 300 765 C169 735 84 642 43 527 C18 458 9 362 27 280 C43 206 74 142 121 91 C178 29 251 -14 362 -20 C431 -24 491 -8 537 16 C641 70 704 182 718 330 C719 348 724 381 714 393 C704 404 666 401 637 401 L475 401 C451 401 412 405 401 394 C391 385 394 358 394 342 C394 320 392 297 400 288 C410 276 446 280 474 280 C499 280 537 284 547 271 C560 253 536 210 527 196 C501 155 465 124 413 114 C315 94 250 154 216 207 C190 248 174 297 171 359 C167 422 182 478 203 521 C234 584 288 640 376 643 C452 646 505 600 535 556 C541 546 548 533 561 532 C572 531 583 540 593 545 L623 561 C642 571 673 580 675 600 C676 614 663 630 656 641 C598 721 500 780 364 773 L364 773 Z " />
<glyph glyph-name="Gdotaccent" unicode="&#x120;" horiz-adv-x="563" d="M270 976 C235 971 207 945 203 909 C197 854 241 817 284 818 C336 819 382 874 354 934 C341 960 310 982 270 976 L270 976 Z M287 763 C209 759 153 727 116 685 C43 602 12 441 32 286 C40 217 63 149 94 100 C139 29 224 -33 346 -8 C378 -2 408 14 430 31 C507 94 537 216 537 357 C537 378 540 403 530 412 C522 421 497 419 477 419 L354 419 C336 419 309 421 300 412 C290 402 293 372 293 349 C293 326 288 297 300 285 C319 266 366 290 382 270 C391 256 384 228 381 211 C374 180 356 146 331 134 C280 109 236 146 216 186 C200 220 192 265 188 314 C181 417 189 526 227 584 C238 601 248 611 264 618 C304 637 340 613 354 587 C362 572 364 542 381 538 C393 534 408 542 417 545 L451 559 C468 566 507 573 511 592 C513 604 505 619 500 630 C464 706 395 768 287 763 L287 763 Z " />
<glyph glyph-name="gdotaccent" unicode="&#x121;" horiz-adv-x="739" d="M358 976 C323 971 295 945 291 909 C285 854 329 817 372 818 C424 819 470 874 442 934 C429 960 398 982 358 976 L358 976 Z M364 773 C343 772 321 770 300 765 C169 735 84 642 43 527 C18 458 9 362 27 280 C43 206 74 142 121 91 C178 29 251 -14 362 -20 C431 -24 491 -8 537 16 C641 70 704 182 718 330 C719 348 724 381 714 393 C704 404 666 401 637 401 L475 401 C451 401 412 405 401 394 C391 385 394 358 394 342 C394 320 392 297 400 288 C410 276 446 280 474 280 C499 280 537 284 547 271 C560 253 536 210 527 196 C501 155 465 124 413 114 C315 94 250 154 216 207 C190 248 174 297 171 359 C167 422 182 478 203 521 C234 584 288 640 376 643 C452 646 505 600 535 556 C541 546 548 533 561 532 C572 531 583 540 593 545 L623 561 C642 571 673 580 675 600 C676 614 663 630 656 641 C598 721 500 780 364 773 L364 773 Z " />
<glyph glyph-name="uni0122" unicode="&#x122;" horiz-adv-x="563" d="M287 763 C209 759 153 727 116 685 C43 602 12 441 32 286 C40 217 63 149 94 100 C139 29 224 -33 346 -8 C378 -2 408 14 430 31 C507 94 537 216 537 357 C537 378 540 403 530 412 C522 421 497 419 477 419 L354 419 C336 419 309 421 300 412 C290 402 293 372 293 349 C293 326 288 297 300 285 C319 266 366 290 382 270 C391 256 384 228 381 211 C374 180 356 146 331 134 C280 109 236 146 216 186 C200 220 192 265 188 314 C181 417 189 526 227 584 C238 601 248 611 264 618 C304 637 340 613 354 587 C362 572 364 542 381 538 C393 534 408 542 417 545 L451 559 C468 566 507 573 511 592 C513 604 505 619 500 630 C464 706 395 768 287 763 L287 763 Z M290 -31 C263 -34 257 -72 249 -96 C228 -158 203 -225 181 -283 C176 -296 169 -314 173 -324 C178 -337 234 -345 251 -339 C262 -335 268 -321 274 -309 C310 -236 344 -162 379 -90 C384 -78 395 -62 391 -50 C385 -34 306 -29 290 -31 L290 -31 Z " />
<glyph glyph-name="uni0123" unicode="&#x123;" horiz-adv-x="739" d="M361 818 C388 820 394 844 402 859 C423 898 448 940 470 977 C475 985 482 996 478 1003 C473 1011 417 1016 400 1012 C389 1010 383 1001 377 993 C341 947 307 901 272 856 C267 848 256 838 260 830 C266 820 345 817 361 818 L361 818 Z M364 773 C343 772 321 770 300 765 C169 735 84 642 43 527 C18 458 9 362 27 280 C43 206 74 142 121 91 C178 29 251 -14 362 -20 C431 -24 491 -8 537 16 C641 70 704 182 718 330 C719 348 724 381 714 393 C704 404 666 401 637 401 L475 401 C451 401 412 405 401 394 C391 385 394 358 394 342 C394 320 392 297 400 288 C410 276 446 280 474 280 C499 280 537 284 547 271 C560 253 536 210 527 196 C501 155 465 124 413 114 C315 94 250 154 216 207 C190 248 174 297 171 359 C167 422 182 478 203 521 C234 584 288 640 376 643 C452 646 505 600 535 556 C541 546 548 533 561 532 C572 531 583 540 593 545 L623 561 C642 571 673 580 675 600 C676 614 663 630 656 641 C598 721 500 780 364 773 L364 773 Z " />
<glyph glyph-name="Hcircumflex" unicode="&#x124;" horiz-adv-x="555" d="M272 1011 C255 1007 240 986 229 976 C202 952 177 931 150 906 C137 895 116 879 116 865 C115 849 129 840 137 832 C144 824 154 808 168 808 C177 808 189 819 198 827 C216 844 228 857 248 875 C256 883 266 894 278 894 C295 894 319 863 332 851 C347 836 370 808 387 808 C401 808 408 823 417 832 C425 842 439 850 439 865 C438 882 417 894 403 907 L321 981 C309 991 291 1015 272 1011 L272 1011 Z M77 750 C51 747 53 730 53 701 L53 93 C53 66 49 16 60 5 C71 -6 107 -2 128 -2 C150 -2 186 -5 196 5 C208 18 202 57 202 78 L202 237 C202 258 199 300 209 310 C221 322 251 317 277 317 C302 317 334 321 345 310 C356 300 352 262 352 237 L352 78 C352 49 347 17 359 5 C370 -6 405 -2 427 -2 C448 -2 485 -5 495 5 C506 17 502 65 502 92 L502 655 C502 677 507 731 496 744 C486 755 451 751 425 751 C397 751 368 755 358 744 C349 733 352 699 352 677 L352 531 C352 513 355 474 345 465 C336 456 299 458 277 458 C255 458 221 453 209 465 C198 476 202 511 202 531 L202 678 C202 697 205 735 196 745 C184 756 94 753 77 750 L77 750 Z " />
<glyph glyph-name="hcircumflex" unicode="&#x125;" horiz-adv-x="674" d="M332 953 C315 949 300 928 289 918 C262 894 237 873 210 848 C197 837 176 821 176 807 C175 791 189 782 197 774 C204 766 214 750 228 750 C237 750 249 761 258 769 C276 786 288 799 308 817 C316 825 326 836 338 836 C355 836 379 805 392 793 C407 778 430 750 447 750 C461 750 468 765 477 774 C485 784 499 792 499 807 C498 824 477 836 463 849 L381 923 C369 933 351 957 332 953 L332 953 Z M79 753 C53 749 54 734 54 704 L54 95 C54 71 50 19 60 7 C72 -6 103 -1 127 -1 C153 -1 184 -5 195 6 C208 18 202 59 202 83 L202 253 C202 280 198 319 210 330 C221 339 254 336 271 336 L405 336 C426 336 457 339 466 329 C478 318 473 278 473 253 L473 85 C473 61 469 19 479 7 C489 -5 519 -1 546 -1 C571 -1 600 -4 612 4 C627 13 621 65 621 93 L621 659 C621 681 628 733 614 747 C603 758 569 754 547 754 C523 754 491 758 480 747 C470 736 473 700 473 680 L473 532 C473 509 477 474 466 464 C457 455 430 457 403 457 L271 457 C250 457 222 454 210 463 C199 472 202 510 202 532 L202 680 C202 698 206 736 195 747 C186 757 159 754 141 754 C117 754 97 755 79 753 L79 753 Z " />
<glyph glyph-name="Hbar" unicode="&#x126;" horiz-adv-x="674" d="M704 647 C695 659 646 655 621 655 L621 659 C621 681 628 733 614 747 C603 758 569 754 547 754 C523 754 491 758 480 747 C470 736 473 700 473 680 L473 655 C382 655 292 655 202 655 L202 680 C202 698 206 736 195 747 C186 757 159 754 141 754 C117 754 97 755 79 753 C53 749 54 734 54 704 L54 655 C32 656 11 656 -6 654 C-15 653 -22 651 -26 646 C-37 632 -34 558 -25 548 C-15 536 27 539 54 540 L54 95 C54 71 50 19 60 7 C72 -6 103 -1 127 -1 C153 -1 184 -5 195 6 C208 18 202 59 202 83 L202 253 C202 280 198 319 210 330 C221 339 254 336 271 336 L405 336 C426 336 457 339 466 329 C478 318 473 278 473 253 L473 85 C473 61 469 19 479 7 C489 -5 519 -1 546 -1 C571 -1 600 -4 612 4 C627 13 621 65 621 93 L621 540 C648 540 692 537 703 547 C713 557 715 632 704 647 L704 647 Z M466 464 C457 455 430 457 403 457 L271 457 C250 457 222 454 210 463 C199 472 202 510 202 532 L202 540 C293 540 383 540 473 540 L473 532 C473 509 477 474 466 464 L466 464 Z " />
<glyph glyph-name="hbar" unicode="&#x127;" horiz-adv-x="674" d="M704 647 C695 659 646 655 621 655 L621 659 C621 681 628 733 614 747 C603 758 569 754 547 754 C523 754 491 758 480 747 C470 736 473 700 473 680 L473 655 C382 655 292 655 202 655 L202 680 C202 698 206 736 195 747 C186 757 159 754 141 754 C117 754 97 755 79 753 C53 749 54 734 54 704 L54 655 C32 656 11 656 -6 654 C-15 653 -22 651 -26 646 C-37 632 -34 558 -25 548 C-15 536 27 539 54 540 L54 95 C54 71 50 19 60 7 C72 -6 103 -1 127 -1 C153 -1 184 -5 195 6 C208 18 202 59 202 83 L202 253 C202 280 198 319 210 330 C221 339 254 336 271 336 L405 336 C426 336 457 339 466 329 C478 318 473 278 473 253 L473 85 C473 61 469 19 479 7 C489 -5 519 -1 546 -1 C571 -1 600 -4 612 4 C627 13 621 65 621 93 L621 540 C648 540 692 537 703 547 C713 557 715 632 704 647 L704 647 Z M466 464 C457 455 430 457 403 457 L271 457 C250 457 222 454 210 463 C199 472 202 510 202 532 L202 540 C293 540 383 540 473 540 L473 532 C473 509 477 474 466 464 L466 464 Z " />
<glyph glyph-name="Itilde" unicode="&#x128;" horiz-adv-x="254" d="M33 937 C-6 932 -31 900 -45 869 C-52 854 -66 821 -56 807 C-47 794 0 797 12 802 C31 810 35 837 62 839 C81 840 101 831 119 823 C135 816 152 806 170 801 C235 783 279 828 298 869 C303 880 319 912 312 928 C305 942 254 941 241 935 C221 927 220 904 198 899 C175 893 146 910 128 917 C102 927 68 942 33 937 L33 937 Z M79 753 C53 750 54 733 54 704 C54 659 54 600 54 563 L54 93 C54 65 50 17 61 6 C71 -4 103 -1 127 -1 C152 -1 182 -6 194 5 C207 16 202 67 202 95 L202 659 C202 688 206 736 195 747 C182 760 98 755 79 753 L79 753 Z " />
<glyph glyph-name="itilde" unicode="&#x129;" horiz-adv-x="254" d="M33 937 C-6 932 -31 900 -45 869 C-52 854 -66 821 -56 807 C-47 794 0 797 12 802 C31 810 35 837 62 839 C81 840 101 831 119 823 C135 816 152 806 170 801 C235 783 279 828 298 869 C303 880 319 912 312 928 C305 942 254 941 241 935 C221 927 220 904 198 899 C175 893 146 910 128 917 C102 927 68 942 33 937 L33 937 Z M79 753 C53 750 54 733 54 704 C54 659 54 600 54 563 L54 93 C54 65 50 17 61 6 C71 -4 103 -1 127 -1 C152 -1 182 -6 194 5 C207 16 202 67 202 95 L202 659 C202 688 206 736 195 747 C182 760 98 755 79 753 L79 753 Z " />
<glyph glyph-name="Imacron" unicode="&#x12a;" horiz-adv-x="254" d="M-39 928 C-47 927 -54 926 -59 920 C-70 906 -67 857 -57 848 C-45 835 4 841 31 841 L223 841 C251 841 299 836 312 848 C323 859 323 911 312 922 C306 928 293 929 275 929 L141 929 C73 929 19 933 -38 929 C-39 929 -39 928 -39 928 L-39 928 Z M79 753 C53 750 54 733 54 704 C54 659 54 600 54 563 L54 93 C54 65 50 17 61 6 C71 -4 103 -1 127 -1 C152 -1 182 -6 194 5 C207 16 202 67 202 95 L202 659 C202 688 206 736 195 747 C182 760 98 755 79 753 L79 753 Z " />
<glyph glyph-name="imacron" unicode="&#x12b;" horiz-adv-x="254" d="M-39 928 C-47 927 -54 926 -59 920 C-70 906 -67 857 -57 848 C-45 835 4 841 31 841 L223 841 C251 841 299 836 312 848 C323 859 323 911 312 922 C306 928 293 929 275 929 L141 929 C73 929 19 933 -38 929 C-39 929 -39 928 -39 928 L-39 928 Z M79 753 C53 750 54 733 54 704 C54 659 54 600 54 563 L54 93 C54 65 50 17 61 6 C71 -4 103 -1 127 -1 C152 -1 182 -6 194 5 C207 16 202 67 202 95 L202 659 C202 688 206 736 195 747 C182 760 98 755 79 753 L79 753 Z " />
<glyph glyph-name="Ibreve" unicode="&#x12c;" horiz-adv-x="254" d="M-23 959 C-48 955 -45 937 -38 916 C-17 852 40 804 127 804 C201 804 250 840 278 890 C284 901 303 932 294 950 C287 963 224 964 209 957 C194 951 192 933 184 920 C173 904 153 889 125 890 C98 891 80 903 70 918 C62 928 59 948 46 956 C34 962 -3 962 -23 959 L-23 959 Z M79 753 C53 750 54 733 54 704 C54 659 54 600 54 563 L54 93 C54 65 50 17 61 6 C71 -4 103 -1 127 -1 C152 -1 182 -6 194 5 C207 16 202 67 202 95 L202 659 C202 688 206 736 195 747 C182 760 98 755 79 753 L79 753 Z " />
<glyph glyph-name="Iogonek" unicode="&#x12e;" horiz-adv-x="254" d="M207 -117 C198 -108 180 -120 162 -117 C147 -115 135 -103 129 -89 C115 -50 147 -31 158 -2 C173 -2 187 -2 194 5 C207 16 202 67 202 95 L202 659 C202 688 206 736 195 747 C182 760 98 755 79 753 C53 750 54 733 54 704 C54 659 54 600 54 563 L54 93 C54 65 50 17 61 6 C67 0 79 -1 93 -1 C79 -10 68 -24 59 -37 C45 -57 32 -87 35 -121 C40 -161 77 -193 123 -196 C152 -198 186 -194 199 -177 C206 -168 219 -127 207 -117 L207 -117 Z " />
<glyph glyph-name="iogonek" unicode="&#x12f;" horiz-adv-x="254" d="M129 818 C181 819 227 874 199 934 C186 960 155 982 115 976 C80 971 52 945 48 909 C42 854 86 817 129 818 L129 818 Z M230 -115 C221 -106 203 -118 185 -115 C170 -113 158 -101 152 -87 C138 -48 170 -29 181 -1 C186 0 191 2 194 5 C207 16 202 67 202 95 L202 659 C202 688 206 736 195 747 C182 760 98 755 79 753 C53 750 54 733 54 704 C54 659 54 600 54 563 L54 93 C54 65 50 17 61 6 C69 -2 92 -2 114 -1 C101 -10 91 -23 82 -35 C68 -55 55 -85 58 -119 C63 -159 100 -191 146 -194 C175 -196 209 -192 222 -175 C229 -166 242 -125 230 -115 L230 -115 Z " />
<glyph glyph-name="Idotaccent" unicode="&#x130;" horiz-adv-x="254" d="M115 976 C80 971 52 945 48 909 C42 854 86 817 129 818 C181 819 227 874 199 934 C186 960 155 982 115 976 L115 976 Z M79 753 C53 750 54 733 54 704 C54 659 54 600 54 563 L54 93 C54 65 50 17 61 6 C71 -4 103 -1 127 -1 C152 -1 182 -6 194 5 C207 16 202 67 202 95 L202 659 C202 688 206 736 195 747 C182 760 98 755 79 753 L79 753 Z " />
<glyph glyph-name="dotlessi" unicode="&#x131;" horiz-adv-x="254" d="M79 753 C53 750 54 733 54 704 C54 659 54 600 54 563 L54 93 C54 65 50 17 61 6 C71 -4 103 -1 127 -1 C152 -1 182 -6 194 5 C207 16 202 67 202 95 L202 659 C202 688 206 736 195 747 C182 760 98 755 79 753 L79 753 Z " />
<glyph glyph-name="Jcircumflex" unicode="&#x134;" horiz-adv-x="389" d="M258 1011 C241 1007 226 986 215 976 C188 952 163 931 136 906 C123 895 102 879 102 865 C101 849 115 840 123 832 C130 824 140 808 154 808 C163 808 175 819 184 827 C202 844 214 857 234 875 C242 883 252 894 264 894 C281 894 305 863 318 851 C333 836 356 808 373 808 C387 808 394 823 403 832 C411 842 425 850 425 865 C424 882 403 894 389 907 L307 981 C295 991 277 1015 258 1011 L258 1011 Z M217 753 L215 753 C183 752 192 699 192 664 C192 515 193 378 192 231 C191 178 182 119 137 113 C118 111 107 117 95 128 C90 132 80 145 69 145 C59 145 49 134 43 127 C28 110 17 95 3 79 C-4 72 -14 64 -13 51 C-12 34 12 20 23 13 C40 2 55 -5 74 -11 C118 -25 170 -19 202 -7 C273 19 319 77 334 160 C341 202 340 251 340 303 L340 677 C340 701 343 736 334 746 C322 759 236 756 217 753 L217 753 Z " />
<glyph glyph-name="jcircumflex" unicode="&#x135;" horiz-adv-x="352" d="M221 978 C204 974 189 953 178 943 C151 919 126 898 99 873 C86 862 65 846 65 832 C64 816 78 807 86 799 C93 791 103 775 117 775 C126 775 138 786 147 794 C165 811 177 824 197 842 C205 850 215 861 227 861 C244 861 268 830 281 818 C296 803 319 775 336 775 C350 775 357 790 366 799 C374 809 388 817 388 832 C387 849 366 861 352 874 L270 948 C258 958 240 982 221 978 L221 978 Z M20 138 C9 125 13 102 13 79 C13 57 10 30 17 16 C23 3 44 -4 62 -7 C81 -11 104 -14 125 -13 C235 -11 286 53 300 152 C309 210 305 279 305 348 L305 650 C305 680 311 732 298 745 C289 754 263 751 243 751 C220 751 197 753 181 751 C147 748 155 710 155 671 L155 284 C155 233 159 173 141 144 C128 123 96 112 63 123 C51 127 36 141 20 138 L20 138 Z " />
<glyph glyph-name="uni0136" unicode="&#x136;" horiz-adv-x="513" d="M210 461 C199 479 202 504 202 527 L202 677 C202 700 205 734 195 745 C186 754 159 751 138 751 C107 751 69 758 57 743 C47 730 52 681 52 654 L52 95 C52 68 47 19 58 6 C68 -5 102 -2 128 -2 C153 -2 185 -5 195 5 C206 16 202 61 202 85 L202 258 C202 286 198 316 211 336 C223 328 228 313 233 300 C266 214 294 128 324 41 C329 27 335 9 345 3 C359 -6 395 -2 418 -2 C441 -2 481 -6 487 8 C493 21 479 47 474 60 C434 161 399 253 361 353 C355 368 344 389 345 405 C345 418 353 435 358 448 C393 534 423 612 457 697 C463 711 474 730 469 742 C463 757 427 751 405 751 C377 751 349 755 334 748 C317 739 307 700 300 680 C276 615 256 553 231 491 C226 480 222 465 210 461 L210 461 Z M265 -31 C238 -34 232 -72 224 -96 C203 -158 178 -225 156 -283 C151 -296 144 -314 148 -324 C153 -337 209 -345 226 -339 C237 -335 243 -321 249 -309 C285 -236 319 -162 354 -90 C359 -78 370 -62 366 -50 C360 -34 281 -29 265 -31 L265 -31 Z " />
<glyph glyph-name="uni0137" unicode="&#x137;" horiz-adv-x="620" d="M79 753 C74 752 64 752 59 745 C49 732 54 683 54 657 L54 93 C54 65 50 17 61 6 C72 -5 105 -1 128 -1 C154 -1 182 -6 195 6 C206 17 202 55 202 79 L202 241 C202 262 198 310 212 312 C222 314 237 290 246 278 C304 197 358 118 416 38 C426 24 436 8 450 3 C471 -5 507 -1 539 -1 C567 -1 613 -7 618 10 C620 20 612 29 606 38 C527 146 450 247 372 353 C362 366 339 388 340 406 C340 420 358 439 369 451 C439 535 500 612 572 698 C578 706 605 728 601 744 C597 759 551 754 526 754 C499 754 462 756 443 751 C429 747 420 732 410 718 C354 641 302 569 245 493 C237 483 222 459 211 462 C198 465 202 506 202 527 L202 677 C202 705 204 735 196 746 C188 757 160 754 140 754 C116 754 90 754 79 753 L79 753 Z M318 -31 C291 -34 285 -72 277 -96 C256 -158 231 -225 209 -283 C204 -296 197 -314 201 -324 C206 -337 262 -345 279 -339 C290 -335 296 -321 302 -309 C338 -236 372 -162 407 -90 C412 -78 423 -62 419 -50 C413 -34 334 -29 318 -31 L318 -31 Z " />
<glyph glyph-name="Lacute" unicode="&#x139;" horiz-adv-x="410" d="M180 972 C164 970 153 948 145 937 C125 910 110 888 89 859 C81 848 64 830 65 815 C66 802 80 797 91 790 C101 784 114 773 126 774 C140 775 156 795 166 805 L237 876 C247 886 269 901 268 916 C267 932 239 942 229 948 C213 958 197 974 180 972 L180 972 Z M79 753 C53 750 54 736 54 706 L54 95 C54 68 49 19 60 7 C71 -6 115 -1 141 -1 L320 -1 C345 -1 390 -6 403 6 C413 17 410 40 410 63 C410 83 412 112 403 121 C395 129 375 128 358 128 L306 128 C276 128 223 121 209 135 C198 146 202 183 202 206 L202 675 C202 701 205 737 195 747 C186 756 160 754 141 754 C116 754 90 754 79 753 L79 753 Z " />
<glyph glyph-name="lacute" unicode="&#x13a;" horiz-adv-x="373" d="M181 970 C165 968 154 946 146 935 C126 908 111 886 90 857 C82 846 65 828 66 813 C67 800 81 795 92 788 C102 782 115 771 127 772 C141 773 157 793 167 803 L238 874 C248 884 270 899 269 914 C268 930 240 940 230 946 C214 956 198 972 181 970 L181 970 Z M77 750 L75 750 C43 750 52 692 52 655 L52 96 C52 69 48 21 57 7 C66 -5 105 -2 128 -2 L280 -2 C302 -2 338 -6 350 4 C361 14 358 41 358 67 C358 92 361 122 351 133 C339 144 306 139 280 139 C246 139 219 136 209 146 C199 156 202 191 202 219 L202 675 C202 701 205 735 195 745 C186 754 160 751 140 751 C116 751 86 752 77 750 L77 750 Z " />
<glyph glyph-name="uni013B" unicode="&#x13b;" horiz-adv-x="410" d="M79 753 C53 750 54 736 54 706 L54 95 C54 68 49 19 60 7 C71 -6 115 -1 141 -1 L320 -1 C345 -1 390 -6 403 6 C413 17 410 40 410 63 C410 83 412 112 403 121 C395 129 375 128 358 128 L306 128 C276 128 223 121 209 135 C198 146 202 183 202 206 L202 675 C202 701 205 737 195 747 C186 756 160 754 141 754 C116 754 90 754 79 753 L79 753 Z M209 -31 C182 -34 176 -72 168 -96 C147 -158 122 -225 100 -283 C95 -296 88 -314 92 -324 C97 -337 153 -345 170 -339 C181 -335 187 -321 193 -309 C229 -236 263 -162 298 -90 C303 -78 314 -62 310 -50 C304 -34 225 -29 209 -31 L209 -31 Z " />
<glyph glyph-name="uni013C" unicode="&#x13c;" horiz-adv-x="373" d="M77 750 L75 750 C43 750 52 692 52 655 L52 96 C52 69 48 21 57 7 C66 -5 105 -2 128 -2 L280 -2 C302 -2 338 -6 350 4 C361 14 358 41 358 67 C358 92 361 122 351 133 C339 144 306 139 280 139 C246 139 219 136 209 146 C199 156 202 191 202 219 L202 675 C202 701 205 735 195 745 C186 754 160 751 140 751 C116 751 86 752 77 750 L77 750 Z M195 -31 C168 -34 162 -72 154 -96 C133 -158 108 -225 86 -283 C81 -296 74 -314 78 -324 C83 -337 139 -345 156 -339 C167 -335 173 -321 179 -309 C215 -236 249 -162 284 -90 C289 -78 300 -62 296 -50 C290 -34 211 -29 195 -31 L195 -31 Z " />
<glyph glyph-name="Lcaron" unicode="&#x13d;" horiz-adv-x="410" d="M7 981 C-5 980 -14 968 -24 957 C-34 946 -45 937 -44 925 C-43 908 -15 892 -6 884 C23 858 51 835 79 810 C90 800 108 777 126 777 C142 777 160 799 173 810 C204 836 228 857 259 884 C269 893 296 910 296 927 C296 938 281 951 274 959 C266 968 257 982 243 982 C233 982 220 969 212 962 L157 915 C146 906 138 895 125 895 C115 895 104 905 94 914 C74 931 59 945 40 962 C30 971 19 982 7 981 L7 981 Z M79 753 C53 750 54 736 54 706 L54 95 C54 68 49 19 60 7 C71 -6 115 -1 141 -1 L320 -1 C345 -1 390 -6 403 6 C413 17 410 40 410 63 C410 83 412 112 403 121 C395 129 375 128 358 128 L306 128 C276 128 223 121 209 135 C198 146 202 183 202 206 L202 675 C202 701 205 737 195 747 C186 756 160 754 141 754 C116 754 90 754 79 753 L79 753 Z " />
<glyph glyph-name="lcaron" unicode="&#x13e;" horiz-adv-x="373" d="M8 979 C-4 978 -13 966 -23 955 C-33 944 -44 935 -43 923 C-42 906 -14 890 -5 882 C24 856 52 833 80 808 C91 798 109 775 127 775 C143 775 161 797 174 808 C205 834 229 855 260 882 C270 891 297 908 297 925 C297 936 282 949 275 957 C267 966 258 980 244 980 C234 980 221 967 213 960 L158 913 C147 904 139 893 126 893 C116 893 105 903 95 912 C75 929 60 943 41 960 C31 969 20 980 8 979 L8 979 Z M77 750 L75 750 C43 750 52 692 52 655 L52 96 C52 69 48 21 57 7 C66 -5 105 -2 128 -2 L280 -2 C302 -2 338 -6 350 4 C361 14 358 41 358 67 C358 92 361 122 351 133 C339 144 306 139 280 139 C246 139 219 136 209 146 C199 156 202 191 202 219 L202 675 C202 701 205 735 195 745 C186 754 160 751 140 751 C116 751 86 752 77 750 L77 750 Z " />
<glyph glyph-name="Ldot" unicode="&#x13f;" horiz-adv-x="410" d="M79 753 C53 750 54 736 54 706 L54 95 C54 68 49 19 60 7 C71 -6 115 -1 141 -1 L320 -1 C345 -1 390 -6 403 6 C413 17 410 40 410 63 C410 83 412 112 403 121 C395 129 375 128 358 128 L306 128 C276 128 223 121 209 135 C198 146 202 183 202 206 L202 675 C202 701 205 737 195 747 C186 756 160 754 141 754 C116 754 90 754 79 753 L79 753 Z M320 472 C279 472 246 440 246 399 C246 358 279 324 320 324 C361 324 394 358 394 399 C394 440 361 472 320 472 L320 472 Z " />
<glyph glyph-name="ldot" unicode="&#x140;" horiz-adv-x="480" d="M77 750 L75 750 C43 750 52 692 52 655 L52 96 C52 69 48 21 57 7 C66 -5 105 -2 128 -2 L280 -2 C302 -2 338 -6 350 4 C361 14 358 41 358 67 C358 92 361 122 351 133 C339 144 306 139 280 139 C246 139 219 136 209 146 C199 156 202 191 202 219 L202 675 C202 701 205 735 195 745 C186 754 160 751 140 751 C116 751 86 752 77 750 L77 750 Z M381 490 C332 490 292 451 292 402 C292 353 332 312 381 312 C430 312 470 353 470 402 C470 451 430 490 381 490 L381 490 Z " />
<glyph glyph-name="Lslash" unicode="&#x141;" horiz-adv-x="410" d="M410 63 C410 83 412 112 403 121 C395 129 375 128 358 128 L306 128 C276 128 223 121 209 135 C198 146 202 183 202 206 C202 257 202 307 202 357 L226 373 C243 384 265 397 268 410 C271 422 256 440 246 455 C235 471 224 491 212 494 C209 495 205 494 202 493 L202 675 C202 701 205 737 195 747 C186 756 160 754 141 754 C116 754 90 754 79 753 C53 750 54 736 54 706 L54 400 C31 385 11 371 -2 358 C-7 353 -14 349 -14 340 C-15 322 29 262 43 259 C46 258 50 259 54 260 L54 95 C54 68 49 19 60 7 C71 -6 115 -1 141 -1 L320 -1 C345 -1 390 -6 403 6 C413 17 410 40 410 63 L410 63 Z " />
<glyph glyph-name="lslash" unicode="&#x142;" horiz-adv-x="373" d="M351 133 C339 144 306 139 280 139 C246 139 219 136 209 146 C199 156 202 191 202 219 L202 363 C211 369 219 375 227 380 C244 391 266 404 269 417 C272 429 257 447 247 462 C236 478 225 498 213 501 C210 502 206 501 202 500 L202 675 C202 701 205 735 195 745 C186 754 160 751 140 751 C116 751 86 752 77 750 L75 750 C43 750 52 692 52 655 L52 405 C30 391 11 377 -1 365 C-6 360 -13 356 -13 347 C-14 329 30 269 44 266 C46 265 49 266 52 266 L52 96 C52 69 48 21 57 7 C66 -5 105 -2 128 -2 L280 -2 C302 -2 338 -6 350 4 C361 14 358 41 358 67 C358 92 361 122 351 133 L351 133 Z " />
<glyph glyph-name="Nacute" unicode="&#x143;" horiz-adv-x="759" d="M434 972 C418 970 407 948 399 937 C379 910 364 888 343 859 C335 848 318 830 319 815 C320 802 334 797 345 790 C355 784 368 773 380 774 C394 775 410 795 420 805 L491 876 C501 886 523 901 522 916 C521 932 493 942 483 948 C467 958 451 974 434 972 L434 972 Z M80 773 C67 771 64 769 60 763 C50 748 55 703 55 672 L55 94 C55 64 51 16 63 5 C75 -5 108 -1 129 -1 C149 -1 184 -5 195 5 C205 14 203 39 203 62 L203 433 C203 452 201 483 212 486 C222 489 235 471 242 461 C350 321 450 185 555 46 C569 27 586 -5 608 -13 C629 -20 691 -20 702 -8 C712 4 708 53 708 81 L708 654 C708 681 714 729 703 745 C694 758 658 754 634 754 C612 754 579 758 567 747 C558 738 560 710 560 690 L560 386 C560 359 562 324 560 295 C557 254 535 279 521 297 C414 436 313 573 209 713 C196 731 174 765 155 771 C138 777 91 774 80 773 L80 773 Z " />
<glyph glyph-name="nacute" unicode="&#x144;" horiz-adv-x="573" d="M341 972 C325 970 314 948 306 937 C286 910 271 888 250 859 C242 848 225 830 226 815 C227 802 241 797 252 790 C262 784 275 773 287 774 C301 775 317 795 327 805 L398 876 C408 886 430 901 429 916 C428 932 400 942 390 948 C374 958 358 974 341 972 L341 972 Z M365 366 C350 373 344 392 337 408 C296 507 256 604 216 704 C209 721 203 742 191 749 C179 755 155 753 136 753 C109 753 69 759 58 744 C47 730 53 682 53 655 L53 94 C53 66 48 18 59 6 C70 -4 103 0 127 0 C152 0 182 -4 195 5 C204 12 202 34 202 51 L202 354 C202 370 199 388 208 399 C224 390 229 370 235 354 C279 251 319 151 360 47 C367 29 374 8 387 3 C402 -4 429 0 452 0 C475 0 503 -5 514 6 C526 18 521 66 521 93 L521 658 C521 684 526 734 514 746 C503 757 467 753 445 753 C422 753 387 756 377 745 C365 731 371 680 371 654 L371 409 C371 393 373 377 365 366 L365 366 Z " />
<glyph glyph-name="uni0145" unicode="&#x145;" horiz-adv-x="759" d="M80 773 C67 771 64 769 60 763 C50 748 55 703 55 672 L55 94 C55 64 51 16 63 5 C75 -5 108 -1 129 -1 C149 -1 184 -5 195 5 C205 14 203 39 203 62 L203 433 C203 452 201 483 212 486 C222 489 235 471 242 461 C350 321 450 185 555 46 C569 27 586 -5 608 -13 C629 -20 691 -20 702 -8 C712 4 708 53 708 81 L708 654 C708 681 714 729 703 745 C694 758 658 754 634 754 C612 754 579 758 567 747 C558 738 560 710 560 690 L560 386 C560 359 562 324 560 295 C557 254 535 279 521 297 C414 436 313 573 209 713 C196 731 174 765 155 771 C138 777 91 774 80 773 L80 773 Z M388 -31 C361 -34 355 -72 347 -96 C326 -158 301 -225 279 -283 C274 -296 267 -314 271 -324 C276 -337 332 -345 349 -339 C360 -335 366 -321 372 -309 C408 -236 442 -162 477 -90 C482 -78 493 -62 489 -50 C483 -34 404 -29 388 -31 L388 -31 Z " />
<glyph glyph-name="uni0146" unicode="&#x146;" horiz-adv-x="573" d="M365 366 C350 373 344 392 337 408 C296 507 256 604 216 704 C209 721 203 742 191 749 C179 755 155 753 136 753 C109 753 69 759 58 744 C47 730 53 682 53 655 L53 94 C53 66 48 18 59 6 C70 -4 103 0 127 0 C152 0 182 -4 195 5 C204 12 202 34 202 51 L202 354 C202 370 199 388 208 399 C224 390 229 370 235 354 C279 251 319 151 360 47 C367 29 374 8 387 3 C402 -4 429 0 452 0 C475 0 503 -5 514 6 C526 18 521 66 521 93 L521 658 C521 684 526 734 514 746 C503 757 467 753 445 753 C422 753 387 756 377 745 C365 731 371 680 371 654 L371 409 C371 393 373 377 365 366 L365 366 Z M295 -31 C268 -34 262 -72 254 -96 C233 -158 208 -225 186 -283 C181 -296 174 -314 178 -324 C183 -337 239 -345 256 -339 C267 -335 273 -321 279 -309 C315 -236 349 -162 384 -90 C389 -78 400 -62 396 -50 C390 -34 311 -29 295 -31 L295 -31 Z " />
<glyph glyph-name="Ncaron" unicode="&#x147;" horiz-adv-x="759" d="M261 981 C249 980 240 968 230 957 C220 946 209 937 210 925 C211 908 239 892 248 884 C277 858 305 835 333 810 C344 800 362 777 380 777 C396 777 414 799 427 810 C458 836 482 857 513 884 C523 893 550 910 550 927 C550 938 535 951 528 959 C520 968 511 982 497 982 C487 982 474 969 466 962 L411 915 C400 906 392 895 379 895 C369 895 358 905 348 914 C328 931 313 945 294 962 C284 971 273 982 261 981 L261 981 Z M80 773 C67 771 64 769 60 763 C50 748 55 703 55 672 L55 94 C55 64 51 16 63 5 C75 -5 108 -1 129 -1 C149 -1 184 -5 195 5 C205 14 203 39 203 62 L203 433 C203 452 201 483 212 486 C222 489 235 471 242 461 C350 321 450 185 555 46 C569 27 586 -5 608 -13 C629 -20 691 -20 702 -8 C712 4 708 53 708 81 L708 654 C708 681 714 729 703 745 C694 758 658 754 634 754 C612 754 579 758 567 747 C558 738 560 710 560 690 L560 386 C560 359 562 324 560 295 C557 254 535 279 521 297 C414 436 313 573 209 713 C196 731 174 765 155 771 C138 777 91 774 80 773 L80 773 Z " />
<glyph glyph-name="ncaron" unicode="&#x148;" horiz-adv-x="573" d="M168 981 C156 980 147 968 137 957 C127 946 116 937 117 925 C118 908 146 892 155 884 C184 858 212 835 240 810 C251 800 269 777 287 777 C303 777 321 799 334 810 C365 836 389 857 420 884 C430 893 457 910 457 927 C457 938 442 951 435 959 C427 968 418 982 404 982 C394 982 381 969 373 962 L318 915 C307 906 299 895 286 895 C276 895 265 905 255 914 C235 931 220 945 201 962 C191 971 180 982 168 981 L168 981 Z M365 366 C350 373 344 392 337 408 C296 507 256 604 216 704 C209 721 203 742 191 749 C179 755 155 753 136 753 C109 753 69 759 58 744 C47 730 53 682 53 655 L53 94 C53 66 48 18 59 6 C70 -4 103 0 127 0 C152 0 182 -4 195 5 C204 12 202 34 202 51 L202 354 C202 370 199 388 208 399 C224 390 229 370 235 354 C279 251 319 151 360 47 C367 29 374 8 387 3 C402 -4 429 0 452 0 C475 0 503 -5 514 6 C526 18 521 66 521 93 L521 658 C521 684 526 734 514 746 C503 757 467 753 445 753 C422 753 387 756 377 745 C365 731 371 680 371 654 L371 409 C371 393 373 377 365 366 L365 366 Z " />
<glyph glyph-name="Omacron" unicode="&#x14c;" horiz-adv-x="782" d="M225 945 C217 944 210 943 205 937 C194 923 197 874 207 865 C219 852 268 858 295 858 L487 858 C515 858 563 853 576 865 C587 876 587 928 576 939 C570 945 557 946 539 946 L405 946 C337 946 283 950 226 946 C225 946 225 945 225 945 L225 945 Z M367 773 C339 771 308 767 282 760 C207 739 148 697 107 646 C53 579 10 477 18 352 C26 232 65 144 131 80 C194 19 290 -26 414 -20 C531 -15 616 38 673 106 C731 175 769 274 763 399 C757 517 714 610 651 672 C588 734 492 780 367 773 L367 773 Z M286 600 C312 615 343 625 378 627 C450 632 509 600 546 559 C581 520 608 460 611 389 C614 315 591 251 558 207 C525 162 473 128 404 126 C253 121 181 225 171 364 C163 476 216 559 286 600 L286 600 Z " />
<glyph glyph-name="omacron" unicode="&#x14d;" horiz-adv-x="582" d="M125 928 C117 927 110 926 105 920 C94 906 97 857 107 848 C119 835 168 841 195 841 L387 841 C415 841 463 836 476 848 C487 859 487 911 476 922 C470 928 457 929 439 929 L305 929 C237 929 183 933 126 929 C125 929 125 928 125 928 L125 928 Z M288 764 C236 764 194 748 162 726 C96 682 59 610 40 521 C8 376 29 205 88 107 C126 41 199 -16 296 -12 C392 -8 458 42 498 111 C538 181 556 269 556 380 C556 483 535 578 495 645 C455 710 389 766 288 764 L288 764 Z M221 577 C234 601 252 621 284 624 C313 628 338 611 351 593 C398 532 405 382 389 274 C380 216 364 156 321 135 C301 125 271 126 251 141 C242 147 231 160 225 171 C173 256 171 488 221 577 L221 577 Z " />
<glyph glyph-name="Obreve" unicode="&#x14e;" horiz-adv-x="782" d="M240 959 C215 955 218 937 225 916 C246 852 303 804 390 804 C464 804 513 840 541 890 C547 901 566 932 557 950 C550 963 487 964 472 957 C457 951 455 933 447 920 C436 904 416 889 388 890 C361 891 343 903 333 918 C325 928 322 948 309 956 C297 962 260 962 240 959 L240 959 Z M367 773 C339 771 308 767 282 760 C207 739 148 697 107 646 C53 579 10 477 18 352 C26 232 65 144 131 80 C194 19 290 -26 414 -20 C531 -15 616 38 673 106 C731 175 769 274 763 399 C757 517 714 610 651 672 C588 734 492 780 367 773 L367 773 Z M286 600 C312 615 343 625 378 627 C450 632 509 600 546 559 C581 520 608 460 611 389 C614 315 591 251 558 207 C525 162 473 128 404 126 C253 121 181 225 171 364 C163 476 216 559 286 600 L286 600 Z " />
<glyph glyph-name="obreve" unicode="&#x14f;" horiz-adv-x="582" d="M140 959 C115 955 118 937 125 916 C146 852 203 804 290 804 C364 804 413 840 441 890 C447 901 466 932 457 950 C450 963 387 964 372 957 C357 951 355 933 347 920 C336 904 316 889 288 890 C261 891 243 903 233 918 C225 928 222 948 209 956 C197 962 160 962 140 959 L140 959 Z M288 764 C236 764 194 748 162 726 C96 682 59 610 40 521 C8 376 29 205 88 107 C126 41 199 -16 296 -12 C392 -8 458 42 498 111 C538 181 556 269 556 380 C556 483 535 578 495 645 C455 710 389 766 288 764 L288 764 Z M221 577 C234 601 252 621 284 624 C313 628 338 611 351 593 C398 532 405 382 389 274 C380 216 364 156 321 135 C301 125 271 126 251 141 C242 147 231 160 225 171 C173 256 171 488 221 577 L221 577 Z " />
<glyph glyph-name="Ohungarumlaut" unicode="&#x150;" horiz-adv-x="782" d="M360 999 C344 998 331 975 324 965 C303 936 290 917 268 886 C260 875 242 858 244 842 C245 830 258 824 270 817 C280 811 293 800 305 801 C320 802 335 822 345 832 L416 903 C425 912 448 927 447 943 C446 959 420 968 409 975 C395 984 376 1000 360 999 L360 999 Z M549 999 C533 998 520 975 513 965 C492 936 479 917 457 886 C449 875 431 858 433 842 C434 830 447 824 459 817 C469 811 482 800 494 801 C509 802 524 822 534 832 L605 903 C614 912 637 927 636 943 C635 959 609 968 598 975 C584 984 565 1000 549 999 L549 999 Z M367 773 C339 771 308 767 282 760 C207 739 148 697 107 646 C53 579 10 477 18 352 C26 232 65 144 131 80 C194 19 290 -26 414 -20 C531 -15 616 38 673 106 C731 175 769 274 763 399 C757 517 714 610 651 672 C588 734 492 780 367 773 L367 773 Z M286 600 C312 615 343 625 378 627 C450 632 509 600 546 559 C581 520 608 460 611 389 C614 315 591 251 558 207 C525 162 473 128 404 126 C253 121 181 225 171 364 C163 476 216 559 286 600 L286 600 Z " />
<glyph glyph-name="ohungarumlaut" unicode="&#x151;" horiz-adv-x="582" d="M260 982 C244 981 231 958 224 948 C203 919 190 900 168 869 C160 858 142 841 144 825 C145 813 158 807 170 800 C180 794 193 783 205 784 C220 785 235 805 245 815 L316 886 C325 895 348 910 347 926 C346 942 320 951 309 958 C295 967 276 983 260 982 L260 982 Z M449 982 C433 981 420 958 413 948 C392 919 379 900 357 869 C349 858 331 841 333 825 C334 813 347 807 359 800 C369 794 382 783 394 784 C409 785 424 805 434 815 L505 886 C514 895 537 910 536 926 C535 942 509 951 498 958 C484 967 465 983 449 982 L449 982 Z M288 764 C236 764 194 748 162 726 C96 682 59 610 40 521 C8 376 29 205 88 107 C126 41 199 -16 296 -12 C392 -8 458 42 498 111 C538 181 556 269 556 380 C556 483 535 578 495 645 C455 710 389 766 288 764 L288 764 Z M221 577 C234 601 252 621 284 624 C313 628 338 611 351 593 C398 532 405 382 389 274 C380 216 364 156 321 135 C301 125 271 126 251 141 C242 147 231 160 225 171 C173 256 171 488 221 577 L221 577 Z " />
<glyph glyph-name="OE" unicode="&#x152;" horiz-adv-x="1039" d="M358 773 C325 771 293 764 264 753 C181 722 122 665 81 599 C54 555 29 500 21 434 C12 363 20 293 41 237 C80 130 153 45 257 4 C284 -7 315 -16 346 -19 C439 -28 512 1 565 41 C573 48 589 65 601 62 C614 58 608 17 616 8 C628 -6 675 0 704 0 L896 0 C923 0 972 -5 987 6 C998 14 995 45 995 64 C995 82 1000 107 989 120 C980 130 956 128 935 128 L876 128 C845 128 782 121 765 134 C751 145 757 201 757 230 C757 257 750 309 764 323 C772 332 793 330 813 330 L927 330 C943 330 968 329 977 337 C987 347 984 370 984 394 C984 415 987 442 977 452 C968 460 944 459 928 459 L871 459 C841 459 778 452 764 466 C752 477 757 514 757 544 C757 574 752 607 764 618 C772 626 796 625 816 625 L935 625 C955 625 980 624 988 632 C999 643 995 670 995 688 C995 707 998 736 989 746 C977 759 925 754 898 754 L706 754 C676 754 629 759 617 747 C608 738 614 694 600 691 C591 689 581 700 574 705 C521 748 453 779 358 773 L358 773 Z M273 599 C297 614 330 625 364 627 C437 632 493 598 529 557 C565 515 591 458 596 389 C601 312 574 255 541 211 C506 166 459 132 391 127 C316 121 263 155 226 195 C187 236 163 289 159 363 C154 436 181 500 213 542 C229 563 247 583 273 599 L273 599 Z " />
<glyph glyph-name="oe" unicode="&#x153;" horiz-adv-x="1039" d="M358 773 C325 771 293 764 264 753 C181 722 122 665 81 599 C54 555 29 500 21 434 C12 363 20 293 41 237 C80 130 153 45 257 4 C284 -7 315 -16 346 -19 C439 -28 512 1 565 41 C573 48 589 65 601 62 C614 58 608 17 616 8 C628 -6 675 0 704 0 L896 0 C923 0 972 -5 987 6 C998 14 995 45 995 64 C995 82 1000 107 989 120 C980 130 956 128 935 128 L876 128 C845 128 782 121 765 134 C751 145 757 201 757 230 C757 257 750 309 764 323 C772 332 793 330 813 330 L927 330 C943 330 968 329 977 337 C987 347 984 370 984 394 C984 415 987 442 977 452 C968 460 944 459 928 459 L871 459 C841 459 778 452 764 466 C752 477 757 514 757 544 C757 574 752 607 764 618 C772 626 796 625 816 625 L935 625 C955 625 980 624 988 632 C999 643 995 670 995 688 C995 707 998 736 989 746 C977 759 925 754 898 754 L706 754 C676 754 629 759 617 747 C608 738 614 694 600 691 C591 689 581 700 574 705 C521 748 453 779 358 773 L358 773 Z M273 599 C297 614 330 625 364 627 C437 632 493 598 529 557 C565 515 591 458 596 389 C601 312 574 255 541 211 C506 166 459 132 391 127 C316 121 263 155 226 195 C187 236 163 289 159 363 C154 436 181 500 213 542 C229 563 247 583 273 599 L273 599 Z " />
<glyph glyph-name="Racute" unicode="&#x154;" horiz-adv-x="530" d="M319 972 C303 970 292 948 284 937 C264 910 249 888 228 859 C220 848 203 830 204 815 C205 802 219 797 230 790 C240 784 253 773 265 774 C279 775 295 795 305 805 L376 876 C386 886 408 901 407 916 C406 932 378 942 368 948 C352 958 336 974 319 972 L319 972 Z M481 8 C485 26 476 39 472 52 C441 132 411 212 380 293 C375 306 365 323 368 337 C369 347 386 358 395 366 C426 393 447 425 459 472 C476 539 465 614 438 659 C410 704 364 734 298 746 C251 754 191 753 135 753 C108 753 67 759 57 742 C48 726 53 679 53 653 L53 93 C53 65 48 18 60 6 C71 -5 106 0 127 0 C150 0 181 -5 195 5 C206 14 202 55 202 78 L202 232 C202 258 199 285 211 301 C222 295 228 281 233 270 C259 205 281 142 305 76 C314 53 322 15 340 5 C356 -4 386 0 412 0 C439 0 469 -4 481 8 L481 8 Z M202 576 C202 604 200 625 227 628 C292 635 325 587 321 521 C318 484 299 451 273 439 C260 432 225 422 210 435 C197 446 202 501 202 526 L202 576 Z " />
<glyph glyph-name="racute" unicode="&#x155;" horiz-adv-x="558" d="M292 971 C276 969 265 947 257 936 C237 909 222 887 201 858 C193 847 176 829 177 814 C178 801 192 796 203 789 C213 783 226 772 238 773 C252 774 268 794 278 804 L349 875 C359 885 381 900 380 915 C379 931 351 941 341 947 C325 957 309 973 292 971 L292 971 Z M79 753 C54 750 54 737 54 704 C54 584 54 496 54 375 L54 93 C54 69 50 17 61 6 C71 -4 103 -1 128 -1 C152 -1 183 -6 195 6 C204 16 202 46 202 69 L202 211 C202 229 198 270 211 273 C221 275 232 253 238 244 L344 68 C355 48 373 11 392 3 C407 -3 442 -1 475 -1 C500 -1 545 -7 550 10 C553 22 539 39 532 50 C480 127 434 194 385 269 C378 280 362 296 365 310 C367 322 391 329 403 335 C467 369 512 447 505 546 C496 665 432 729 327 748 C292 754 250 754 207 754 C165 754 117 758 79 753 L79 753 Z M202 573 C202 603 197 628 227 632 C265 637 313 620 332 601 C372 559 362 462 319 431 C306 422 288 416 269 412 C251 409 223 402 210 413 C195 425 202 490 202 517 L202 573 Z " />
<glyph glyph-name="uni0156" unicode="&#x156;" horiz-adv-x="530" d="M481 8 C485 26 476 39 472 52 C441 132 411 212 380 293 C375 306 365 323 368 337 C369 347 386 358 395 366 C426 393 447 425 459 472 C476 539 465 614 438 659 C410 704 364 734 298 746 C251 754 191 753 135 753 C108 753 67 759 57 742 C48 726 53 679 53 653 L53 93 C53 65 48 18 60 6 C71 -5 106 0 127 0 C150 0 181 -5 195 5 C206 14 202 55 202 78 L202 232 C202 258 199 285 211 301 C222 295 228 281 233 270 C259 205 281 142 305 76 C314 53 322 15 340 5 C356 -4 386 0 412 0 C439 0 469 -4 481 8 L481 8 Z M202 576 C202 604 200 625 227 628 C292 635 325 587 321 521 C318 484 299 451 273 439 C260 432 225 422 210 435 C197 446 202 501 202 526 L202 576 Z M273 -31 C246 -34 240 -72 232 -96 C211 -158 186 -225 164 -283 C159 -296 152 -314 156 -324 C161 -337 217 -345 234 -339 C245 -335 251 -321 257 -309 C293 -236 327 -162 362 -90 C367 -78 378 -62 374 -50 C368 -34 289 -29 273 -31 L273 -31 Z " />
<glyph glyph-name="uni0157" unicode="&#x157;" horiz-adv-x="558" d="M79 753 C54 750 54 737 54 704 C54 584 54 496 54 375 L54 93 C54 69 50 17 61 6 C71 -4 103 -1 128 -1 C152 -1 183 -6 195 6 C204 16 202 46 202 69 L202 211 C202 229 198 270 211 273 C221 275 232 253 238 244 L344 68 C355 48 373 11 392 3 C407 -3 442 -1 475 -1 C500 -1 545 -7 550 10 C553 22 539 39 532 50 C480 127 434 194 385 269 C378 280 362 296 365 310 C367 322 391 329 403 335 C467 369 512 447 505 546 C496 665 432 729 327 748 C292 754 250 754 207 754 C165 754 117 758 79 753 L79 753 Z M202 573 C202 603 197 628 227 632 C265 637 313 620 332 601 C372 559 362 462 319 431 C306 422 288 416 269 412 C251 409 223 402 210 413 C195 425 202 490 202 517 L202 573 Z M287 -31 C260 -34 254 -72 246 -96 C225 -158 200 -225 178 -283 C173 -296 166 -314 170 -324 C175 -337 231 -345 248 -339 C259 -335 265 -321 271 -309 C307 -236 341 -162 376 -90 C381 -78 392 -62 388 -50 C382 -34 303 -29 287 -31 L287 -31 Z " />
<glyph glyph-name="Rcaron" unicode="&#x158;" horiz-adv-x="530" d="M146 981 C134 980 125 968 115 957 C105 946 94 937 95 925 C96 908 124 892 133 884 C162 858 190 835 218 810 C229 800 247 777 265 777 C281 777 299 799 312 810 C343 836 367 857 398 884 C408 893 435 910 435 927 C435 938 420 951 413 959 C405 968 396 982 382 982 C372 982 359 969 351 962 L296 915 C285 906 277 895 264 895 C254 895 243 905 233 914 C213 931 198 945 179 962 C169 971 158 982 146 981 L146 981 Z M481 8 C485 26 476 39 472 52 C441 132 411 212 380 293 C375 306 365 323 368 337 C369 347 386 358 395 366 C426 393 447 425 459 472 C476 539 465 614 438 659 C410 704 364 734 298 746 C251 754 191 753 135 753 C108 753 67 759 57 742 C48 726 53 679 53 653 L53 93 C53 65 48 18 60 6 C71 -5 106 0 127 0 C150 0 181 -5 195 5 C206 14 202 55 202 78 L202 232 C202 258 199 285 211 301 C222 295 228 281 233 270 C259 205 281 142 305 76 C314 53 322 15 340 5 C356 -4 386 0 412 0 C439 0 469 -4 481 8 L481 8 Z M202 576 C202 604 200 625 227 628 C292 635 325 587 321 521 C318 484 299 451 273 439 C260 432 225 422 210 435 C197 446 202 501 202 526 L202 576 Z " />
<glyph glyph-name="rcaron" unicode="&#x159;" horiz-adv-x="558" d="M119 980 C107 979 98 967 88 956 C78 945 67 936 68 924 C69 907 97 891 106 883 C135 857 163 834 191 809 C202 799 220 776 238 776 C254 776 272 798 285 809 C316 835 340 856 371 883 C381 892 408 909 408 926 C408 937 393 950 386 958 C378 967 369 981 355 981 C345 981 332 968 324 961 L269 914 C258 905 250 894 237 894 C227 894 216 904 206 913 C186 930 171 944 152 961 C142 970 131 981 119 980 L119 980 Z M79 753 C54 750 54 737 54 704 C54 584 54 496 54 375 L54 93 C54 69 50 17 61 6 C71 -4 103 -1 128 -1 C152 -1 183 -6 195 6 C204 16 202 46 202 69 L202 211 C202 229 198 270 211 273 C221 275 232 253 238 244 L344 68 C355 48 373 11 392 3 C407 -3 442 -1 475 -1 C500 -1 545 -7 550 10 C553 22 539 39 532 50 C480 127 434 194 385 269 C378 280 362 296 365 310 C367 322 391 329 403 335 C467 369 512 447 505 546 C496 665 432 729 327 748 C292 754 250 754 207 754 C165 754 117 758 79 753 L79 753 Z M202 573 C202 603 197 628 227 632 C265 637 313 620 332 601 C372 559 362 462 319 431 C306 422 288 416 269 412 C251 409 223 402 210 413 C195 425 202 490 202 517 L202 573 Z " />
<glyph glyph-name="Sacute" unicode="&#x15a;" horiz-adv-x="526" d="M317 972 C301 970 290 948 282 937 C262 910 247 888 226 859 C218 848 201 830 202 815 C203 802 217 797 228 790 C238 784 251 773 263 774 C277 775 293 795 303 805 L374 876 C384 886 406 901 405 916 C404 932 376 942 366 948 C350 958 334 974 317 972 L317 972 Z M258 773 C220 771 190 761 164 746 C136 730 117 712 100 691 C67 649 42 582 55 506 C73 405 156 366 239 333 C294 311 356 287 349 205 C344 149 300 100 232 113 C192 120 159 149 139 179 C133 189 125 206 113 207 C101 208 94 196 88 191 C80 183 72 177 66 171 C53 158 31 143 30 124 C29 105 54 79 65 67 C109 19 168 -21 254 -21 C313 -21 359 -7 398 19 C469 65 517 162 500 280 C484 388 404 427 316 465 C275 483 224 500 209 543 C203 561 207 586 213 599 C225 623 248 642 282 647 C314 651 345 641 362 631 C380 620 392 598 409 600 C426 602 437 629 444 640 C454 654 472 670 470 689 C469 706 447 718 433 726 C389 753 321 777 258 773 L258 773 Z " />
<glyph glyph-name="sacute" unicode="&#x15b;" horiz-adv-x="440" d="M274 972 C258 970 247 948 239 937 C219 910 204 888 183 859 C175 848 158 830 159 815 C160 802 174 797 185 790 C195 784 208 773 220 774 C234 775 250 795 260 805 L331 876 C341 886 363 901 362 916 C361 932 333 942 323 948 C307 958 291 974 274 972 L274 972 Z M231 764 C158 764 108 732 76 686 C46 643 27 571 39 498 C55 399 125 353 194 306 C217 290 241 272 253 247 C263 226 262 193 253 173 C239 146 211 128 171 129 C150 129 132 135 118 140 C106 144 84 159 72 154 C59 149 63 115 63 96 C63 72 60 46 66 32 C77 5 133 -6 163 -10 C214 -16 253 -7 284 5 C345 31 389 90 403 166 C411 208 409 255 398 291 C370 382 288 417 228 471 C202 494 170 540 188 589 C193 602 208 617 223 623 C248 634 287 627 306 620 C318 615 342 593 356 599 C369 605 364 641 364 658 C364 684 367 709 360 723 C353 739 327 747 306 754 C282 761 250 764 231 764 L231 764 Z " />
<glyph glyph-name="Scircumflex" unicode="&#x15c;" horiz-adv-x="526" d="M258 1006 C241 1002 226 981 215 971 C188 947 163 926 136 901 C123 890 102 874 102 860 C101 844 115 835 123 827 C130 819 140 803 154 803 C163 803 175 814 184 822 C202 839 214 852 234 870 C242 878 252 889 264 889 C281 889 305 858 318 846 C333 831 356 803 373 803 C387 803 394 818 403 827 C411 837 425 845 425 860 C424 877 403 889 389 902 L307 976 C295 986 277 1010 258 1006 L258 1006 Z M258 773 C220 771 190 761 164 746 C136 730 117 712 100 691 C67 649 42 582 55 506 C73 405 156 366 239 333 C294 311 356 287 349 205 C344 149 300 100 232 113 C192 120 159 149 139 179 C133 189 125 206 113 207 C101 208 94 196 88 191 C80 183 72 177 66 171 C53 158 31 143 30 124 C29 105 54 79 65 67 C109 19 168 -21 254 -21 C313 -21 359 -7 398 19 C469 65 517 162 500 280 C484 388 404 427 316 465 C275 483 224 500 209 543 C203 561 207 586 213 599 C225 623 248 642 282 647 C314 651 345 641 362 631 C380 620 392 598 409 600 C426 602 437 629 444 640 C454 654 472 670 470 689 C469 706 447 718 433 726 C389 753 321 777 258 773 L258 773 Z " />
<glyph glyph-name="scircumflex" unicode="&#x15d;" horiz-adv-x="440" d="M215 993 C198 989 183 968 172 958 C145 934 120 913 93 888 C80 877 59 861 59 847 C58 831 72 822 80 814 C87 806 97 790 111 790 C120 790 132 801 141 809 C159 826 171 839 191 857 C199 865 209 876 221 876 C238 876 262 845 275 833 C290 818 313 790 330 790 C344 790 351 805 360 814 C368 824 382 832 382 847 C381 864 360 876 346 889 L264 963 C252 973 234 997 215 993 L215 993 Z M231 764 C158 764 108 732 76 686 C46 643 27 571 39 498 C55 399 125 353 194 306 C217 290 241 272 253 247 C263 226 262 193 253 173 C239 146 211 128 171 129 C150 129 132 135 118 140 C106 144 84 159 72 154 C59 149 63 115 63 96 C63 72 60 46 66 32 C77 5 133 -6 163 -10 C214 -16 253 -7 284 5 C345 31 389 90 403 166 C411 208 409 255 398 291 C370 382 288 417 228 471 C202 494 170 540 188 589 C193 602 208 617 223 623 C248 634 287 627 306 620 C318 615 342 593 356 599 C369 605 364 641 364 658 C364 684 367 709 360 723 C353 739 327 747 306 754 C282 761 250 764 231 764 L231 764 Z " />
<glyph glyph-name="Scedilla" unicode="&#x15e;" horiz-adv-x="526" d="M258 773 C220 771 190 761 164 746 C136 730 117 712 100 691 C67 649 42 582 55 506 C73 405 156 366 239 333 C294 311 356 287 349 205 C344 149 300 100 232 113 C192 120 159 149 139 179 C133 189 125 206 113 207 C101 208 94 196 88 191 C80 183 72 177 66 171 C53 158 31 143 30 124 C29 105 54 79 65 67 C109 19 168 -21 254 -21 C313 -21 359 -7 398 19 C469 65 517 162 500 280 C484 388 404 427 316 465 C275 483 224 500 209 543 C203 561 207 586 213 599 C225 623 248 642 282 647 C314 651 345 641 362 631 C380 620 392 598 409 600 C426 602 437 629 444 640 C454 654 472 670 470 689 C469 706 447 718 433 726 C389 753 321 777 258 773 L258 773 Z M253 -26 C238 -32 231 -47 222 -61 C207 -84 194 -102 179 -125 C173 -134 161 -151 162 -162 C163 -174 177 -179 188 -185 C199 -191 211 -200 225 -198 C238 -196 247 -180 256 -170 C275 -147 292 -128 311 -105 C319 -96 335 -82 333 -67 C331 -56 311 -47 299 -41 C284 -33 266 -23 253 -26 L253 -26 Z " />
<glyph glyph-name="scedilla" unicode="&#x15f;" horiz-adv-x="440" d="M231 764 C158 764 108 732 76 686 C46 643 27 571 39 498 C55 399 125 353 194 306 C217 290 241 272 253 247 C263 226 262 193 253 173 C239 146 211 128 171 129 C150 129 132 135 118 140 C106 144 84 159 72 154 C59 149 63 115 63 96 C63 72 60 46 66 32 C77 5 133 -6 163 -10 C214 -16 253 -7 284 5 C345 31 389 90 403 166 C411 208 409 255 398 291 C370 382 288 417 228 471 C202 494 170 540 188 589 C193 602 208 617 223 623 C248 634 287 627 306 620 C318 615 342 593 356 599 C369 605 364 641 364 658 C364 684 367 709 360 723 C353 739 327 747 306 754 C282 761 250 764 231 764 L231 764 Z M185 -26 C170 -32 163 -47 154 -61 C139 -84 126 -102 111 -125 C105 -134 93 -151 94 -162 C95 -174 109 -179 120 -185 C131 -191 143 -200 157 -198 C170 -196 179 -180 188 -170 C207 -147 224 -128 243 -105 C251 -96 267 -82 265 -67 C263 -56 243 -47 231 -41 C216 -33 198 -23 185 -26 L185 -26 Z " />
<glyph glyph-name="Scaron" unicode="&#x160;" horiz-adv-x="526" d="M144 981 C132 980 123 968 113 957 C103 946 92 937 93 925 C94 908 122 892 131 884 C160 858 188 835 216 810 C227 800 245 777 263 777 C279 777 297 799 310 810 C341 836 365 857 396 884 C406 893 433 910 433 927 C433 938 418 951 411 959 C403 968 394 982 380 982 C370 982 357 969 349 962 L294 915 C283 906 275 895 262 895 C252 895 241 905 231 914 C211 931 196 945 177 962 C167 971 156 982 144 981 L144 981 Z M258 773 C220 771 190 761 164 746 C136 730 117 712 100 691 C67 649 42 582 55 506 C73 405 156 366 239 333 C294 311 356 287 349 205 C344 149 300 100 232 113 C192 120 159 149 139 179 C133 189 125 206 113 207 C101 208 94 196 88 191 C80 183 72 177 66 171 C53 158 31 143 30 124 C29 105 54 79 65 67 C109 19 168 -21 254 -21 C313 -21 359 -7 398 19 C469 65 517 162 500 280 C484 388 404 427 316 465 C275 483 224 500 209 543 C203 561 207 586 213 599 C225 623 248 642 282 647 C314 651 345 641 362 631 C380 620 392 598 409 600 C426 602 437 629 444 640 C454 654 472 670 470 689 C469 706 447 718 433 726 C389 753 321 777 258 773 L258 773 Z " />
<glyph glyph-name="scaron" unicode="&#x161;" horiz-adv-x="440" d="M101 981 C89 980 80 968 70 957 C60 946 49 937 50 925 C51 908 79 892 88 884 C117 858 145 835 173 810 C184 800 202 777 220 777 C236 777 254 799 267 810 C298 836 322 857 353 884 C363 893 390 910 390 927 C390 938 375 951 368 959 C360 968 351 982 337 982 C327 982 314 969 306 962 L251 915 C240 906 232 895 219 895 C209 895 198 905 188 914 C168 931 153 945 134 962 C124 971 113 982 101 981 L101 981 Z M231 764 C158 764 108 732 76 686 C46 643 27 571 39 498 C55 399 125 353 194 306 C217 290 241 272 253 247 C263 226 262 193 253 173 C239 146 211 128 171 129 C150 129 132 135 118 140 C106 144 84 159 72 154 C59 149 63 115 63 96 C63 72 60 46 66 32 C77 5 133 -6 163 -10 C214 -16 253 -7 284 5 C345 31 389 90 403 166 C411 208 409 255 398 291 C370 382 288 417 228 471 C202 494 170 540 188 589 C193 602 208 617 223 623 C248 634 287 627 306 620 C318 615 342 593 356 599 C369 605 364 641 364 658 C364 684 367 709 360 723 C353 739 327 747 306 754 C282 761 250 764 231 764 L231 764 Z " />
<glyph glyph-name="uni0162" unicode="&#x162;" horiz-adv-x="414" d="M39 752 C8 748 15 719 15 681 C15 657 12 629 22 620 C41 600 105 626 125 606 C136 594 132 559 132 537 L132 76 C132 51 128 17 138 6 C149 -5 184 0 206 0 C232 0 263 -5 274 6 C285 17 281 48 281 76 L281 537 C281 560 277 597 289 607 C311 626 372 599 392 620 C402 630 399 658 399 682 C399 707 402 733 393 745 C384 757 333 753 308 753 L130 753 C99 753 61 755 39 752 L39 752 Z M212 -26 C197 -32 190 -47 181 -61 C166 -84 153 -102 138 -125 C132 -134 120 -151 121 -162 C122 -174 136 -179 147 -185 C158 -191 170 -200 184 -198 C197 -196 206 -180 215 -170 C234 -147 251 -128 270 -105 C278 -96 294 -82 292 -67 C290 -56 270 -47 258 -41 C243 -33 225 -23 212 -26 L212 -26 Z " />
</font>
</svg>
